<?xml version="1.0" standalone="no"?>
<!DOCTYPE svg PUBLIC "-//W3C//DTD SVG 1.1//EN" "http://www.w3.org/Graphics/SVG/1.1/DTD/svg11.dtd" >
<svg xmlns="http://www.w3.org/2000/svg" xmlns:xlink="http://www.w3.org/1999/xlink" version="1.1">
<metadata></metadata>
<defs>
<font id="sf_pro_textsemibold" horiz-adv-x="1383" >
<font-face units-per-em="2048" ascent="1638" descent="-410" />
<missing-glyph horiz-adv-x="546" />
<glyph horiz-adv-x="0" />
<glyph unicode="&#xd;" horiz-adv-x="0" />
<glyph unicode=" "  horiz-adv-x="546" />
<glyph unicode="&#x09;" horiz-adv-x="546" />
<glyph unicode="&#xa0;" horiz-adv-x="546" />
<glyph unicode="!" horiz-adv-x="696" d="M182 133q0 73 45 116.5t121 43.5t121 -43.5t45 -116.5q0 -72 -45 -115.5t-121 -43.5t-121 43.5t-45 115.5zM209 1444h277l-23 -967h-231z" />
<glyph unicode="&#x22;" horiz-adv-x="972" d="M162 857v586h217v-586h-217zM593 857v586h217v-586h-217z" />
<glyph unicode="#" horiz-adv-x="1337" d="M35 387l36 194h231l60 299h-236l37 192h237l77 371h191l-74 -371h283l77 371h193l-76 -371h241l-36 -192h-243l-62 -299h248l-36 -194h-250l-78 -387h-193l78 387h-284l-79 -387h-192l78 387h-228zM482 567h302l68 325h-304z" />
<glyph unicode="$" d="M144 405h244q7 -84 71 -140t168 -67v426l-96 23q-174 43 -265 143t-91 250q0 177 120 287t332 128v138h138v-138q200 -18 321 -129t125 -280h-239q-2 77 -59.5 133t-147.5 68v-405l99 -21q190 -44 282.5 -142.5t92.5 -256.5q0 -186 -124 -297.5t-350 -130.5v-130h-138 v129q-223 13 -352.5 124t-130.5 288zM422 1061q0 -72 52.5 -120.5t152.5 -69.5v377q-89 -5 -147 -58t-58 -129zM765 196q110 7 170 59.5t60 140.5q0 80 -56 129.5t-174 72.5v-402z" />
<glyph unicode="%" horiz-adv-x="1668" d="M70 1114q0 160 91 259.5t237 99.5t236 -99.5t90 -259.5t-90.5 -260t-235.5 -100q-146 0 -237 100t-91 260zM211 0l547 754l460 689h245l-556 -764l-450 -679h-246zM271 1115q0 -88 34.5 -140t92.5 -52q57 0 91.5 52t34.5 140q0 89 -33.5 139.5t-92.5 50.5t-93 -51 t-34 -139zM944 330q0 160 90.5 259.5t236.5 99.5q145 0 235.5 -99.5t90.5 -259.5q0 -161 -90.5 -260.5t-235.5 -99.5q-146 0 -236.5 100t-90.5 260zM1144 330q0 -88 34.5 -139.5t92.5 -51.5q57 0 91.5 52t34.5 139q0 89 -33.5 140t-92.5 51q-58 0 -92.5 -51.5t-34.5 -139.5z " />
<glyph unicode="&#x26;" horiz-adv-x="1500" d="M110 380q0 125 67 220t208 171q4 2 29.5 16t31.5 17q-98 102 -139 178t-41 155q0 144 112.5 238.5t282.5 94.5q171 0 281 -92.5t110 -237.5q0 -111 -72 -201.5t-228 -173.5l307 -325q57 106 57 309v54h217v-66q0 -286 -121 -460l261 -277h-290l-119 127 q-85 -73 -204 -113.5t-251 -40.5q-225 0 -362 111.5t-137 295.5zM349 400q0 -104 78.5 -168.5t206.5 -64.5q86 0 165.5 30t128.5 81l-359 385q-19 -7 -45 -22q-175 -93 -175 -241zM489 1124q0 -53 31.5 -105t109.5 -128q111 56 158.5 110t47.5 123q0 74 -48.5 120t-125.5 46 q-76 0 -124.5 -46.5t-48.5 -119.5z" />
<glyph unicode="'" horiz-adv-x="540" d="M162 857v586h217v-586h-217z" />
<glyph unicode="(" horiz-adv-x="843" d="M230 604q0 549 292 913h224q-110 -140 -185 -398.5t-75 -513.5q0 -256 74.5 -514.5t185.5 -399.5h-224q-292 365 -292 913z" />
<glyph unicode=")" horiz-adv-x="843" d="M97 -309q111 141 185.5 399.5t74.5 514.5q0 255 -75 513.5t-185 398.5h224q292 -364 292 -913q0 -548 -292 -913h-224z" />
<glyph unicode="*" horiz-adv-x="1032" d="M135 950l267 117l-267 117l88 157l236 -177l-32 294h178l-32 -294l236 177l88 -157l-266 -117l266 -117l-88 -156l-235 172l31 -288h-178l31 289l-235 -173z" />
<glyph unicode="+" d="M163 474v218h421v418h216v-418h420v-218h-420v-419h-216v419h-421z" />
<glyph unicode="," horiz-adv-x="674" d="M141 -382l93 604h251l-173 -604h-171z" />
<glyph unicode="-" horiz-adv-x="983" d="M163 465v233h657v-233h-657z" />
<glyph unicode="." horiz-adv-x="674" d="M177 137q0 69 45 113.5t115 44.5q71 0 115.5 -44.5t44.5 -113.5q0 -68 -44.5 -113t-115.5 -45q-70 0 -115 45t-45 113z" />
<glyph unicode="/" horiz-adv-x="753" d="M0 -309l525 1826h228l-525 -1826h-228z" />
<glyph unicode="0" horiz-adv-x="1361" d="M130 723q0 357 146.5 556.5t404.5 199.5t404 -200t146 -558q0 -357 -145.5 -557t-404.5 -200q-260 0 -405.5 200t-145.5 559zM391 723q0 -264 76 -404.5t214 -140.5t213.5 140.5t75.5 404.5q0 262 -76 401.5t-213 139.5t-213.5 -140t-76.5 -401z" />
<glyph unicode="1" horiz-adv-x="1016" d="M123 931v248l377 264h257v-1443h-258v1183h-17z" />
<glyph unicode="2" horiz-adv-x="1289" d="M137 1017v4q0 202 140.5 330t362.5 128q214 0 352.5 -117t138.5 -298q0 -116 -70 -229.5t-254 -295.5l-302 -303v-17h648v-219h-1002v179l481 492q148 150 197 225.5t49 151.5q0 95 -69.5 157t-176.5 62q-113 0 -183 -68t-70 -178v-4h-242z" />
<glyph unicode="3" horiz-adv-x="1339" d="M131 400h247q8 -100 87 -159.5t204 -59.5q124 0 202.5 64.5t78.5 166.5q0 106 -77 167t-210 61h-181v200h176q110 0 179 60.5t69 157.5q0 96 -67.5 153.5t-180.5 57.5q-112 0 -181.5 -59t-76.5 -161h-241q10 199 146 314.5t361 115.5q210 0 349.5 -109.5t139.5 -275.5 q0 -127 -70.5 -217t-190.5 -115v-17q148 -17 233.5 -111t85.5 -238q0 -186 -155.5 -309t-390.5 -123q-233 0 -379.5 119t-156.5 317z" />
<glyph unicode="4" horiz-adv-x="1377" d="M115 269v230q176 324 588 944h364v-956h195v-218h-195v-269h-247v269h-705zM354 481h470v752h-14q-234 -346 -456 -737v-15z" />
<glyph unicode="5" horiz-adv-x="1326" d="M153 400h242q12 -99 89 -160t189 -61q127 0 205.5 78.5t78.5 207.5t-78.5 209.5t-203.5 80.5q-88 0 -156.5 -37t-108.5 -105h-234l75 830h869v-218h-669l-35 -405h17q100 135 305 135t336.5 -136t131.5 -348q0 -226 -147.5 -366.5t-387.5 -140.5q-223 0 -366 122 t-152 314z" />
<glyph unicode="6" horiz-adv-x="1366" d="M126 706q0 364 154.5 568.5t430.5 204.5q197 0 336.5 -107.5t171.5 -285.5h-258q-24 82 -91.5 129.5t-160.5 47.5q-158 0 -247 -139.5t-89 -387.5h17q51 103 149 159.5t225 56.5q206 0 340.5 -136t134.5 -344q0 -223 -150.5 -365t-385.5 -142q-159 0 -281 73t-194 212 q-102 180 -102 456zM416 468q0 -123 81.5 -205.5t202.5 -82.5q122 0 204 81.5t82 202.5q0 124 -80 203.5t-204 79.5t-205 -79t-81 -200z" />
<glyph unicode="7" horiz-adv-x="1213" d="M97 1226v217h1004v-220l-617 -1223h-270l627 1210v16h-744z" />
<glyph unicode="8" horiz-adv-x="1380" d="M130 386q0 137 85 237.5t227 130.5v17q-115 28 -184.5 114.5t-69.5 202.5q0 171 141 281t361 110t360.5 -110t140.5 -281q0 -116 -68.5 -202t-184.5 -115v-17q141 -26 226.5 -126.5t85.5 -240.5q0 -188 -155.5 -305.5t-405.5 -117.5q-248 0 -403.5 117.5t-155.5 304.5z M396 408q0 -108 81.5 -175.5t212.5 -67.5q130 0 211.5 67.5t81.5 175.5t-81.5 175.5t-211.5 67.5q-131 0 -212.5 -67.5t-81.5 -175.5zM442 1063q0 -95 69 -154.5t179 -59.5t178.5 59.5t68.5 154.5q0 97 -68.5 157.5t-178.5 60.5q-111 0 -179.5 -60.5t-68.5 -157.5z" />
<glyph unicode="9" horiz-adv-x="1366" d="M127 972q0 222 150.5 364.5t385.5 142.5q158 0 280 -73t195 -212q102 -181 102 -456q0 -364 -155 -568.5t-430 -204.5q-198 0 -337 107.5t-171 285.5h257q25 -82 92.5 -129.5t160.5 -47.5q158 0 247 139.5t89 387.5h-9h-5h-3q-51 -103 -149 -159.5t-225 -56.5 q-206 0 -340.5 136t-134.5 344zM380 980q0 -124 80 -203.5t204 -79.5t205 79t81 200q0 122 -82 205t-203 83t-203 -81.5t-82 -202.5z" />
<glyph unicode=":" horiz-adv-x="674" d="M177 137q0 69 45 113.5t115 44.5q71 0 115.5 -44.5t44.5 -113.5q0 -68 -44.5 -113t-115.5 -45q-70 0 -115 45t-45 113zM177 886q0 69 45 113.5t115 44.5q71 0 115.5 -44.5t44.5 -113.5q0 -68 -44.5 -112.5t-115.5 -44.5q-70 0 -115 44.5t-45 112.5z" />
<glyph unicode=";" horiz-adv-x="674" d="M120 -382l96 604h251l-170 -604h-177zM177 886q0 69 45 113.5t115 44.5q71 0 115.5 -44.5t44.5 -113.5q0 -68 -44.5 -112.5t-115.5 -44.5q-70 0 -115 44.5t-45 112.5z" />
<glyph unicode="&#x3c;" d="M228 493v201l927 501v-260l-676 -333v-17l676 -333v-260z" />
<glyph unicode="=" d="M167 251v219h1049v-219h-1049zM167 697v219h1049v-219h-1049z" />
<glyph unicode="&#x3e;" d="M228 -8v260l676 333v17l-676 333v260l927 -501v-201z" />
<glyph unicode="?" horiz-adv-x="1108" d="M78 1046q6 183 128.5 296t339.5 113q204 0 330.5 -106t126.5 -273q0 -215 -212 -341q-98 -58 -133 -105.5t-35 -121.5v-57h-232l-1 68q-7 111 37.5 185t149.5 136q94 57 130 105.5t36 121.5q0 79 -58 129t-152 50q-96 0 -155 -54t-65 -146h-235zM352 133q0 73 45.5 116.5 t120.5 43.5q76 0 121 -43.5t45 -116.5q0 -72 -45 -115.5t-121 -43.5q-75 0 -120.5 43.5t-45.5 115.5z" />
<glyph unicode="@" horiz-adv-x="1892" d="M133 610q0 245 105.5 435t296 295t436.5 105q177 0 327 -54.5t255 -151t164 -234.5t59 -301q0 -241 -104.5 -382t-282.5 -141q-91 0 -154 44t-77 117h-18q-64 -156 -243 -156q-156 0 -251.5 116.5t-95.5 306.5q0 182 95 296.5t246 114.5q80 0 142 -37.5t91 -104.5h18v121 h183v-551q0 -53 26.5 -82.5t75.5 -29.5q83 0 132 97t49 261q0 271 -177.5 436.5t-468.5 165.5t-476 -193.5t-185 -497.5q0 -310 188.5 -493.5t508.5 -183.5q197 0 295 39v-150q-133 -40 -305 -40q-257 0 -451 102.5t-299 291.5t-105 439zM752 604q0 -115 49 -181t135 -66 q89 0 141 66.5t52 180.5t-51.5 180.5t-140.5 66.5q-87 0 -136 -65.5t-49 -181.5z" />
<glyph unicode="A" horiz-adv-x="1456" d="M71 0l512 1443h290l513 -1443h-277l-122 369h-531l-124 -369h-261zM516 573h411l-196 595h-17z" />
<glyph unicode="B" horiz-adv-x="1393" d="M178 0v1443h603q205 0 322 -96.5t117 -263.5q0 -114 -74 -203t-183 -106v-18q146 -14 237 -109.5t91 -236.5q0 -190 -132.5 -300t-363.5 -110h-617zM436 205h300q143 0 217 57.5t74 167.5q0 108 -76.5 164t-224.5 56h-290v-445zM436 836h249q137 0 208.5 51.5t71.5 149.5 q0 95 -65 148t-182 53h-282v-402z" />
<glyph unicode="C" horiz-adv-x="1499" d="M117 721q0 352 177.5 555t484.5 203q246 0 417 -144.5t194 -370.5h-254q-27 130 -124 207.5t-233 77.5q-184 0 -291 -141.5t-107 -385.5t107 -386t292 -142q137 0 234 71.5t123 192.5h254q-26 -222 -194 -358t-417 -136q-307 0 -485 203.5t-178 553.5z" />
<glyph unicode="D" horiz-adv-x="1514" d="M178 0v1443h541q322 0 500.5 -187.5t178.5 -527.5q0 -347 -177.5 -537.5t-501.5 -190.5h-541zM436 223h249q216 0 333 130t117 371q0 236 -118.5 366t-331.5 130h-249v-997z" />
<glyph unicode="E" horiz-adv-x="1254" d="M178 0v1443h934v-223h-676v-383h639v-210h-639v-404h676v-223h-934z" />
<glyph unicode="F" horiz-adv-x="1205" d="M178 0v1443h920v-223h-662v-420h605v-215h-605v-585h-258z" />
<glyph unicode="G" horiz-adv-x="1547" d="M117 722q0 346 183 551.5t491 205.5q250 0 419 -132t204 -353h-257q-39 123 -133.5 189t-232.5 66q-189 0 -299.5 -141t-110.5 -384q0 -246 112.5 -388t305.5 -142q165 0 268 92t106 241l1 30h-347v202h599v-181q0 -281 -171 -447.5t-460 -166.5q-314 0 -496 203.5 t-182 554.5z" />
<glyph unicode="H" horiz-adv-x="1573" d="M178 0v1443h258v-597h702v597h257v-1443h-257v623h-702v-623h-258z" />
<glyph unicode="I" horiz-adv-x="614" d="M178 0v1443h258v-1443h-258z" />
<glyph unicode="J" horiz-adv-x="1184" d="M79 393h252q1 -89 58 -143t149 -54q102 0 156 60.5t54 176.5v1010h258v-1012q0 -222 -123 -344.5t-342 -122.5q-208 0 -335 117t-127 312z" />
<glyph unicode="K" horiz-adv-x="1415" d="M178 0v1443h258v-664h17l569 664h296l-545 -629l588 -814h-315l-456 637l-154 -177v-460h-258z" />
<glyph unicode="L" horiz-adv-x="1198" d="M178 0v1443h258v-1217h662v-226h-920z" />
<glyph unicode="M" horiz-adv-x="1846" d="M178 0v1443h302l434 -1051h18l434 1051h302v-1443h-240v1015h-14l-399 -959h-184l-399 959h-14v-1015h-240z" />
<glyph unicode="N" horiz-adv-x="1554" d="M178 0v1443h224l708 -981h17v981h248v-1443h-223l-708 982h-17v-982h-249z" />
<glyph unicode="O" horiz-adv-x="1599" d="M117 722q0 349 184.5 553t499.5 204q314 0 497.5 -204t183.5 -553t-183 -553.5t-498 -204.5q-317 0 -500.5 204t-183.5 554zM381 722q0 -243 112.5 -386t307.5 -143q192 0 304.5 143.5t112.5 385.5t-112.5 385t-304.5 143q-193 0 -306.5 -143t-113.5 -385z" />
<glyph unicode="P" horiz-adv-x="1351" d="M178 0v1443h582q216 0 350.5 -135t134.5 -353q0 -214 -138.5 -348t-357.5 -134h-313v-473h-258zM436 687h255q139 0 215.5 70t76.5 198q0 132 -75.5 202t-215.5 70h-256v-540z" />
<glyph unicode="Q" horiz-adv-x="1599" d="M117 721q0 350 184.5 554t499.5 204q313 0 497 -204t184 -554q0 -201 -61.5 -356.5t-176.5 -247.5l180 -266h-259l-110 153q-117 -40 -254 -40q-317 0 -500.5 203t-183.5 554zM381 721q0 -243 113.5 -385.5t306.5 -142.5q62 0 122 17l-173 246h248l91 -114 q129 120 129 379q0 243 -113 386t-304 143q-193 0 -306.5 -142.5t-113.5 -386.5z" />
<glyph unicode="R" horiz-adv-x="1391" d="M178 0v1443h586q227 0 360 -121.5t133 -329.5q0 -144 -72 -254.5t-200 -156.5l315 -581h-295l-283 541h-286v-541h-258zM436 746h298q123 0 190.5 63t67.5 178q0 113 -70.5 177.5t-193.5 64.5h-292v-483z" />
<glyph unicode="S" horiz-adv-x="1354" d="M112 392h252q12 -97 101 -154.5t226 -57.5q128 0 210.5 58.5t82.5 149.5q0 78 -62.5 127t-201.5 81l-187 43q-196 44 -290.5 143.5t-94.5 260.5q0 197 147.5 316.5t389.5 119.5q227 0 376 -118t158 -304h-247q-13 95 -91 151t-197 56q-125 0 -200.5 -55.5t-75.5 -147.5 q0 -73 59 -118.5t193 -76.5l166 -38q219 -49 317.5 -146t98.5 -262q0 -211 -152.5 -333.5t-414.5 -122.5q-248 0 -400.5 116t-162.5 312z" />
<glyph unicode="T" horiz-adv-x="1332" d="M93 1220v223h1147v-223h-445v-1220h-258v1220h-444z" />
<glyph unicode="U" horiz-adv-x="1549" d="M182 497v946h257v-922q0 -149 89 -237.5t247 -88.5t246.5 88.5t88.5 237.5v922h258v-946q0 -239 -161 -386t-432 -147t-432 147t-161 386z" />
<glyph unicode="V" horiz-adv-x="1442" d="M71 1443h285l363 -1142h17l360 1142h275l-499 -1443h-297z" />
<glyph unicode="W" horiz-adv-x="2036" d="M88 1443h269l247 -1074h15l284 1074h229l288 -1074h14l247 1074h267l-387 -1443h-242l-294 1022h-15l-292 -1022h-243z" />
<glyph unicode="X" horiz-adv-x="1456" d="M89 0l472 727l-468 716h305l329 -530h17l334 530h290l-484 -722l476 -721h-298l-335 518h-17l-340 -518h-281z" />
<glyph unicode="Y" horiz-adv-x="1412" d="M71 1443h283l344 -617h17l343 617h283l-506 -879v-564h-258v564z" />
<glyph unicode="Z" horiz-adv-x="1373" d="M138 0v176l759 1027v17h-738v223h1057v-176l-756 -1027v-17h775v-223h-1097z" />
<glyph unicode="[" horiz-adv-x="843" d="M258 -309v1826h510v-191h-271v-1444h271v-191h-510z" />
<glyph unicode="\" horiz-adv-x="753" d="M0 1517h231l522 -1826h-231z" />
<glyph unicode="]" horiz-adv-x="843" d="M75 -118h271v1444h-271v191h511v-1826h-511v191z" />
<glyph unicode="^" horiz-adv-x="1036" d="M91 775l310 637h234l311 -637h-223l-196 443h-18l-196 -443h-222z" />
<glyph unicode="_" horiz-adv-x="934" d="M-5 -107h944v-191h-944v191z" />
<glyph unicode="`" horiz-adv-x="1096" d="M284 1622h277l249 -347h-242z" />
<glyph unicode="a" horiz-adv-x="1179" d="M91 310q0 148 107.5 232t307.5 96l282 17v92q0 81 -53 124t-153 43q-86 0 -142 -29.5t-73 -84.5h-234q15 145 140.5 230.5t320.5 85.5q210 0 324.5 -97t114.5 -272v-747h-239v150h-17q-46 -79 -131.5 -123.5t-192.5 -44.5q-160 0 -261 90t-101 238zM337 324 q0 -68 52.5 -107.5t136.5 -39.5q112 0 187 64.5t75 159.5v87l-247 -16q-204 -13 -204 -148z" />
<glyph unicode="b" horiz-adv-x="1306" d="M162 0v1517h248v-597h17q43 89 132 140.5t201 51.5q208 0 328.5 -151.5t120.5 -413.5q0 -261 -121 -413t-328 -152q-115 0 -205 50.5t-137 140.5h-17v-173h-239zM406 547q0 -164 74.5 -259t201.5 -95t199.5 94.5t72.5 259.5t-72.5 259.5t-199.5 94.5t-201.5 -95.5 t-74.5 -258.5z" />
<glyph unicode="c" horiz-adv-x="1182" d="M98 550q0 267 138 416.5t384 149.5q206 0 331.5 -106.5t145.5 -283.5h-236q-18 83 -80 132.5t-161 49.5q-128 0 -199.5 -94t-71.5 -264q0 -172 72 -268t199 -96q97 0 159.5 45t81.5 130h236q-21 -175 -146.5 -279t-329.5 -104q-247 0 -385 151t-138 421z" />
<glyph unicode="d" horiz-adv-x="1306" d="M98 548q0 259 121.5 411.5t328.5 152.5q112 0 200 -51t132 -141h17v597h248v-1517h-240v173h-17q-47 -90 -136.5 -140.5t-203.5 -50.5q-208 0 -329 152.5t-121 413.5zM352 547q0 -166 72.5 -260t200.5 -94t201.5 94.5t73.5 259.5q0 164 -74 259t-201 95t-200 -94.5 t-73 -259.5z" />
<glyph unicode="e" horiz-adv-x="1208" d="M98 543q0 264 138 418.5t376 154.5q234 0 366.5 -146.5t132.5 -405.5v-80h-764v-13q5 -137 78.5 -216.5t195.5 -79.5q188 0 244 126h235q-35 -150 -164.5 -236.5t-321.5 -86.5q-241 0 -378.5 150.5t-137.5 414.5zM348 653h515q-4 122 -72 194t-180 72q-111 0 -183 -73 t-80 -193z" />
<glyph unicode="f" horiz-adv-x="801" d="M53 889v198h179v115q0 164 86.5 245t267.5 81q75 0 138 -11v-182q-33 5 -85 5q-86 0 -124.5 -37.5t-38.5 -116.5v-99h238v-198h-235v-889h-247v889h-179z" />
<glyph unicode="g" horiz-adv-x="1295" d="M96 559q0 252 122 402.5t330 150.5q112 0 203 -52t136 -141h17v175h239v-1098q0 -190 -141 -301t-380 -111q-209 0 -339.5 85t-145.5 227h249q12 -57 75.5 -90t164.5 -33q127 0 198 57t71 160v207h-17q-47 -88 -133.5 -134.5t-200.5 -46.5q-206 0 -327 147.5t-121 395.5z M351 559q0 -158 71 -249.5t200 -91.5t203 92t74 249t-74 249.5t-203 92.5q-128 0 -199.5 -92t-71.5 -250z" />
<glyph unicode="h" horiz-adv-x="1274" d="M162 0v1517h244v-600h18q39 93 125 145t207 52q177 0 276.5 -107t99.5 -301v-706h-248v647q0 124 -56 187.5t-164 63.5q-120 0 -187 -71.5t-67 -191.5v-635h-248z" />
<glyph unicode="i" horiz-adv-x="557" d="M125 1409q0 60 43 98.5t110 38.5q68 0 110.5 -38.5t42.5 -98.5t-42.5 -98.5t-110.5 -38.5q-67 0 -110 38.5t-43 98.5zM155 0v1094h247v-1094h-247z" />
<glyph unicode="j" horiz-adv-x="557" d="M-26 -176q1 0 15 -0.5t17 -0.5q82 0 115.5 32.5t33.5 107.5v1131h247v-1135q0 -333 -368 -333q-39 0 -60 3v195zM125 1409q0 60 43 98.5t110 38.5q68 0 110.5 -38.5t42.5 -98.5t-42.5 -98.5t-110.5 -38.5q-67 0 -110 38.5t-43 98.5z" />
<glyph unicode="k" horiz-adv-x="1188" d="M162 0v1517h248v-869h17l404 446h288l-436 -469l466 -625h-300l-351 469l-88 -88v-381h-248z" />
<glyph unicode="l" horiz-adv-x="571" d="M162 0v1517h248v-1517h-248z" />
<glyph unicode="m" horiz-adv-x="1856" d="M152 0v1094h239v-177h17q35 94 115 146.5t189 52.5q111 0 189 -52.5t113 -146.5h17q41 91 130 145t202 54q164 0 257.5 -97t93.5 -267v-752h-247v689q0 211 -200 211q-96 0 -155 -62t-59 -157v-681h-241v707q0 90 -53 141.5t-145 51.5t-153 -67t-61 -168v-665h-248z" />
<glyph unicode="n" horiz-adv-x="1252" d="M152 0v1094h239v-175h17q40 94 122.5 145.5t202.5 51.5q182 0 279.5 -106t97.5 -302v-708h-248v649q0 251 -221 251q-111 0 -176 -71t-65 -192v-637h-248z" />
<glyph unicode="o" horiz-adv-x="1248" d="M98 547q0 264 141 416.5t385 152.5q245 0 385.5 -152t140.5 -417q0 -266 -140.5 -417.5t-385.5 -151.5q-246 0 -386 151.5t-140 417.5zM352 547q0 -172 71 -266.5t201 -94.5t200.5 94.5t70.5 266.5q0 171 -71 266t-200 95q-130 0 -201 -95t-71 -266z" />
<glyph unicode="p" horiz-adv-x="1296" d="M152 -364v1458h239v-181h17q47 93 137.5 146t202.5 53q208 0 329.5 -151t121.5 -414q0 -262 -120.5 -413.5t-327.5 -151.5q-117 0 -204.5 48.5t-129.5 135.5h-17v-530h-248zM395 547q1 -164 74.5 -259t200.5 -95q129 0 201.5 94t72.5 260t-72.5 260t-200.5 94 q-127 0 -201 -95t-75 -259z" />
<glyph unicode="q" horiz-adv-x="1296" d="M98 548q0 259 122 411.5t329 152.5q111 0 202 -53.5t136 -145.5h17v181h241v-1458h-250v530h-17q-48 -89 -133 -136.5t-200 -47.5q-207 0 -327 152.5t-120 413.5zM352 547q0 -167 72 -260.5t199 -93.5q128 0 202.5 95t74.5 259q0 163 -74.5 258.5t-201.5 95.5t-199.5 -94 t-72.5 -260z" />
<glyph unicode="r" horiz-adv-x="851" d="M152 0v1094h239v-170h17q23 82 103.5 135t185.5 53q67 0 103 -11v-230q-38 14 -127 14q-121 0 -197 -69.5t-76 -183.5v-632h-248z" />
<glyph unicode="s" horiz-adv-x="1128" d="M99 295h245q18 -62 75.5 -95.5t149.5 -33.5q94 0 153 37.5t59 98.5q0 91 -151 124l-194 45q-158 36 -233.5 111.5t-75.5 198.5q0 148 122 241.5t316 93.5q195 0 311.5 -82.5t129.5 -231.5h-233q-14 59 -67.5 92.5t-139.5 33.5t-142 -37t-56 -96q0 -46 39.5 -76t122.5 -49 l193 -44q158 -36 232 -107t74 -191q0 -157 -130 -253.5t-336 -96.5q-205 0 -327.5 84t-136.5 233z" />
<glyph unicode="t" horiz-adv-x="808" d="M58 889v198h173v275h247v-275h234v-198h-234v-537q0 -81 36 -118.5t114 -37.5q34 0 84 5v-194q-62 -12 -130 -12q-188 0 -269.5 69t-81.5 228v597h-173z" />
<glyph unicode="u" horiz-adv-x="1256" d="M142 383v711h248v-649q0 -126 53 -187.5t164 -61.5q120 0 184.5 69t64.5 192v637h248v-1094h-239v174h-17q-83 -196 -327 -196q-179 0 -279 106.5t-100 298.5z" />
<glyph unicode="v" horiz-adv-x="1163" d="M57 1094h266l253 -846h17l251 846h262l-387 -1094h-273z" />
<glyph unicode="w" horiz-adv-x="1681" d="M64 1094h250l182 -817h17l210 817h237l212 -817h17l181 817h247l-296 -1094h-261l-213 788h-17l-212 -788h-258z" />
<glyph unicode="x" horiz-adv-x="1149" d="M67 1094h287l218 -376h17l216 376h273l-353 -541l357 -553h-280l-224 377h-17l-224 -377h-267l354 543z" />
<glyph unicode="y" horiz-adv-x="1183" d="M60 1094h272l256 -854h17l255 854h262l-395 -1129q-69 -203 -169.5 -282.5t-285.5 -79.5q-77 0 -98 4v203q19 -4 68 -4q79 0 125.5 33t70.5 108l13 48z" />
<glyph unicode="z" horiz-adv-x="1140" d="M127 0v155l581 722v17h-576v200h872v-169l-560 -708v-17h569v-200h-886z" />
<glyph unicode="{" horiz-adv-x="843" d="M75 480v252q127 0 179 46.5t52 159.5v215q0 190 94.5 277t300.5 87h67v-191h-43q-98 0 -140 -46.5t-42 -156.5v-258q0 -108 -62.5 -169.5t-184.5 -74.5v-30q122 -13 184.5 -74.5t62.5 -169.5v-262q0 -110 42 -156.5t140 -46.5h43v-191h-67q-206 0 -300.5 88t-94.5 279 v215q0 113 -52 159.5t-179 47.5z" />
<glyph unicode="|" horiz-adv-x="753" d="M263 -309v1826h227v-1826h-227z" />
<glyph unicode="}" horiz-adv-x="843" d="M75 -118h43q98 0 140.5 47t42.5 156v262q0 218 246 244v30q-246 26 -246 244v258q0 110 -42 156.5t-141 46.5h-43v191h67q206 0 300.5 -87t94.5 -277v-215q0 -113 52 -159.5t179 -46.5v-252q-127 -1 -179 -47.5t-52 -159.5v-215q0 -191 -94.5 -279t-300.5 -88h-67v191z " />
<glyph unicode="~" horiz-adv-x="1216" d="M87 537q-1 193 78 296.5t237 103.5q67 0 125.5 -30t129.5 -99q48 -48 80 -67.5t63 -19.5q119 0 127 179h203q0 -400 -311 -400q-69 0 -128.5 29.5t-128.5 97.5q-49 49 -81 68.5t-64 19.5q-120 0 -127 -178h-203z" />
<glyph unicode="&#xa1;" horiz-adv-x="696" d="M182 982q0 72 45 115t121 43t121 -43t45 -115q0 -73 -45 -116.5t-121 -43.5t-121 43.5t-45 116.5zM209 -329l23 967h231l23 -967h-277z" />
<glyph unicode="&#xa2;" d="M159 709q0 224 120 372.5t318 182.5v183h217v-179q166 -27 277.5 -129t129.5 -253h-236q-25 84 -97 132.5t-172 48.5q-132 0 -218.5 -97t-86.5 -261q0 -166 86.5 -264.5t217.5 -98.5q109 0 179.5 46t90.5 129h236q-18 -153 -127.5 -252.5t-279.5 -123.5v-178h-217v182 q-198 35 -318 184.5t-120 375.5z" />
<glyph unicode="&#xa3;" d="M136 0v208q134 23 219.5 116.5t85.5 216.5q0 51 -12 99h-290v188h228q-60 157 -60 250q0 189 143.5 295t399.5 106q90 0 178.5 -14.5t140.5 -36.5v-213q-46 22 -128.5 37t-163.5 15q-147 0 -229 -57.5t-82 -161.5q0 -84 51 -220h435v-188h-375q9 -42 9 -84 q0 -106 -53.5 -192.5t-135.5 -126.5v-17h740v-220h-1101z" />
<glyph unicode="&#xa4;" d="M169 273l156 156q-61 102 -61 222t61 222l-156 156l144 148l156 -156q102 63 223 63t222 -63l156 156l145 -148l-155 -156q61 -102 61 -222t-61 -222l155 -156l-145 -148l-156 156q-101 -63 -222 -63q-122 0 -223 64l-156 -157zM447 651q0 -100 72.5 -172t172.5 -72 q101 0 173.5 72t72.5 172t-72.5 172t-173.5 72q-100 0 -172.5 -72t-72.5 -172z" />
<glyph unicode="&#xa5;" d="M57 1443h283l343 -617h18l343 617h282l-438 -755h206v-157h-274v-145h274v-157h-274v-229h-257v229h-273v157h273v145h-273v157h205z" />
<glyph unicode="&#xa6;" horiz-adv-x="753" d="M263 -309v729h227v-729h-227zM263 788v729h227v-729h-227z" />
<glyph unicode="&#xa7;" horiz-adv-x="1032" d="M80 535q0 94 58 164.5t161 101.5v17q-108 47 -159.5 113.5t-51.5 160.5q0 148 117 238t308 90q178 0 291.5 -85.5t126.5 -229.5h-222q-9 58 -63 93t-136 35q-85 0 -137.5 -38t-52.5 -99q0 -48 38.5 -80t126.5 -58l159 -52q161 -50 234.5 -119.5t73.5 -171.5 q0 -99 -66.5 -176.5t-173.5 -102.5v-18q120 -38 177 -102t57 -161q0 -147 -119 -239t-310 -92q-181 0 -299.5 89.5t-126.5 232.5h225q8 -60 65.5 -97.5t141.5 -37.5q86 0 140 38.5t54 99.5q0 48 -39.5 80t-127.5 57l-163 52q-161 50 -234 120.5t-73 176.5zM306 583 q0 -52 40 -91t113 -58l99 -30q72 5 120.5 50t48.5 107q0 53 -39.5 91.5t-112.5 57.5l-100 31q-71 -6 -120 -52t-49 -106z" />
<glyph unicode="&#xa8;" horiz-adv-x="1145" d="M207 1406q0 60 41 100.5t102 40.5t102 -40.5t41 -100.5t-41 -100.5t-102 -40.5t-102 40.5t-41 100.5zM652 1406q0 60 41 100.5t102 40.5t102 -40.5t41 -100.5t-41 -100.5t-102 -40.5t-102 40.5t-41 100.5z" />
<glyph unicode="&#xa9;" horiz-adv-x="1742" d="M81 643q0 218 104.5 399.5t286 286t399.5 104.5q164 0 310.5 -61.5t251.5 -166.5t166.5 -251.5t61.5 -310.5q0 -219 -104.5 -400.5t-286 -286t-399.5 -104.5q-163 0 -309.5 62t-252 167t-167 252t-61.5 310zM236 643q0 -175 84 -321t230 -229.5t321 -83.5 q132 0 249.5 49.5t202 134t134 202t49.5 248.5q0 176 -83.5 321.5t-229.5 229t-322 83.5q-132 0 -249.5 -49.5t-202 -134t-134 -202t-49.5 -248.5zM500 644q0 186 104.5 295t281.5 109q145 0 242 -78t114 -208h-170q-14 63 -64 100t-120 37q-96 0 -152 -68t-56 -187 q0 -120 55.5 -189t152.5 -69q74 0 122 34.5t62 97.5h170q-16 -130 -111.5 -205.5t-242.5 -75.5q-179 0 -283.5 110t-104.5 297z" />
<glyph unicode="&#xaa;" horiz-adv-x="999" d="M91 787q0 125 91 197t264 82l221 13v77q0 59 -43.5 92t-120.5 33q-65 0 -107 -24.5t-51 -67.5h-220q10 127 114 201t272 74q179 0 280.5 -83.5t101.5 -230.5v-626h-220v115h-17q-35 -64 -105 -100t-160 -36q-136 0 -218 77.5t-82 206.5zM319 800q0 -56 41 -89t111 -33 q85 0 141.5 50.5t56.5 126.5v80l-189 -14q-161 -11 -161 -121z" />
<glyph unicode="&#xab;" horiz-adv-x="1426" d="M165 561v8l350 413h246l-348 -410v-12l348 -411h-249zM664 561v8l350 413h247l-348 -410v-12l348 -411h-250z" />
<glyph unicode="&#xac;" d="M187 474v218h1010v-608h-217v390h-793z" />
<glyph unicode="&#xad;" horiz-adv-x="983" d="M163 465v233h657v-233h-657z" />
<glyph unicode="&#xae;" horiz-adv-x="1260" d="M103 970q0 108 41.5 205.5t112 168t168 112t205.5 41.5t205.5 -41.5t168 -112t112 -168t41.5 -205.5q0 -144 -70 -265.5t-191.5 -192t-265.5 -70.5t-265.5 70.5t-191.5 192t-70 265.5zM225 970q0 -169 118 -286.5t287 -117.5t287 117.5t118 286.5t-117.5 286t-287.5 117 q-169 0 -287 -117t-118 -286zM424 733v491h253q78 0 128 -43.5t50 -111.5q0 -57 -28 -95.5t-80 -52.5l131 -188h-138l-118 171h-83v-171h-115zM539 997h108q83 0 83 65q0 64 -80 64h-111v-129z" />
<glyph unicode="&#xaf;" horiz-adv-x="1048" d="M168 1305v164h712v-164h-712z" />
<glyph unicode="&#xb0;" horiz-adv-x="915" d="M110 1115q0 146 99.5 246.5t247.5 100.5q149 0 248.5 -100.5t99.5 -246.5t-99.5 -246.5t-248.5 -100.5q-148 0 -247.5 100.5t-99.5 246.5zM270 1115q0 -80 52 -134t135 -54q84 0 136.5 54t52.5 134q0 81 -52.5 134.5t-136.5 53.5q-83 0 -135 -53.5t-52 -134.5z" />
<glyph unicode="&#xb1;" d="M189 86v197h1004v-197h-1004zM189 654v192h396v255h213v-255h397v-192h-397v-255h-213v255h-396z" />
<glyph unicode="&#xb2;" horiz-adv-x="881" d="M85 1529v4q0 138 97 222.5t255 84.5q153 0 246.5 -75.5t93.5 -198.5q0 -82 -50 -157.5t-176 -180.5l-140 -129v-18h380v-184h-691v160l286 265q101 90 134.5 135t33.5 90q0 49 -36 81t-91 32q-59 0 -95 -35t-36 -92v-4h-211z" />
<glyph unicode="&#xb3;" horiz-adv-x="915" d="M87 1173h213q4 -53 45 -85t108 -32q65 0 106 32t41 84q0 53 -39 83.5t-109 30.5h-114v157h112q59 0 94.5 29.5t35.5 79.5q0 49 -36 78t-96 29q-61 0 -98.5 -31.5t-40.5 -85.5h-210q2 135 98 215.5t256 80.5q151 0 246.5 -70t95.5 -181q0 -79 -47.5 -135.5t-125.5 -70.5 v-17q95 -8 151.5 -66.5t56.5 -148.5q0 -122 -105 -200t-271 -78q-164 0 -264.5 82.5t-102.5 219.5z" />
<glyph unicode="&#xb4;" horiz-adv-x="1096" d="M269 1275l249 347h277l-284 -347h-242z" />
<glyph unicode="&#xb5;" horiz-adv-x="1326" d="M152 -364v1458h248v-648q0 -250 216 -250q108 0 174 70.5t66 189.5v638h248v-778q0 -71 20.5 -98t72.5 -27q17 0 52 7v-193q-49 -15 -112 -15q-115 0 -173 41t-80 139l-3 13h-17q-30 -102 -93 -153.5t-166 -51.5q-137 0 -188 96h-17v-438h-248z" />
<glyph unicode="&#xb6;" horiz-adv-x="1486" d="M149 962q0 209 143 345t363 136h263v-1688h-244v736h-20q-216 0 -360.5 135t-144.5 336zM1079 -245v1688h243v-1688h-243z" />
<glyph unicode="&#xb7;" horiz-adv-x="689" d="M181 735q0 69 46 115t118 46q71 0 117 -46t46 -115t-46 -115t-117 -46t-117.5 46t-46.5 115z" />
<glyph unicode="&#xb8;" horiz-adv-x="1096" d="M365 -345q44 -14 118 -14q114 0 114 64q0 31 -32 45t-105 14h-59v104l66 157h147v-25l-47 -117q97 -3 150 -47.5t53 -124.5q0 -92 -68.5 -145.5t-190.5 -53.5q-84 0 -146 18v125z" />
<glyph unicode="&#xb9;" horiz-adv-x="726" d="M86 1452v205q72 53 233 159h229v-919h-227v702h-17q-10 -5 -113 -75t-105 -72z" />
<glyph unicode="&#xba;" horiz-adv-x="1077" d="M92 983q0 223 119.5 351t326.5 128q208 0 327 -128t119 -351q0 -225 -118.5 -352.5t-327.5 -127.5t-327.5 127.5t-118.5 352.5zM328 983q0 -139 55 -215t155 -76t155 76t55 215t-55 215.5t-155 76.5t-155 -77t-55 -215z" />
<glyph unicode="&#xbb;" horiz-adv-x="1426" d="M165 149l349 411v12l-349 410h247l350 -413v-8l-347 -412h-250zM665 149l348 411v12l-348 410h247l349 -413v-8l-347 -412h-249z" />
<glyph unicode="&#xbc;" horiz-adv-x="2133" d="M86 1079v205q72 53 233 159h229v-919h-227v702h-17q-10 -5 -113 -75t-105 -72zM546 0l372 752l304 691h235l-369 -734l-308 -709h-234zM1251 147v187q48 95 124.5 217.5t241.5 367.5h318v-592h114v-174h-120v-153h-207v147h-471zM1451 321h272v424h-11 q-194 -295 -261 -419v-5z" />
<glyph unicode="&#xbd;" horiz-adv-x="2136" d="M86 1079v205q72 53 233 159h229v-919h-227v702h-17q-10 -5 -113 -75t-105 -72zM546 0l372 752l304 691h235l-369 -734l-308 -709h-234zM1340 632v4q0 138 97 222.5t255 84.5q153 0 246.5 -75.5t93.5 -198.5q0 -82 -50 -157.5t-176 -180.5l-140 -129v-18h380v-184h-691 v160l286 265q101 90 134.5 135t33.5 90q0 49 -36 81t-91 32q-59 0 -95 -35t-36 -92v-4h-211z" />
<glyph unicode="&#xbe;" horiz-adv-x="2304" d="M87 800h213q4 -53 45 -85t108 -32q65 0 106 32t41 84q0 53 -39 83.5t-109 30.5h-114v157h112q59 0 94.5 29.5t35.5 79.5q0 49 -36 78t-96 29q-61 0 -98.5 -31.5t-40.5 -85.5h-210q2 135 98 215.5t256 80.5q151 0 246.5 -70t95.5 -181q0 -79 -47.5 -135.5t-125.5 -70.5 v-17q95 -8 151.5 -66.5t56.5 -148.5q0 -122 -105 -200t-271 -78q-164 0 -264.5 82.5t-102.5 219.5zM717 0l372 752l304 691h235l-369 -734l-308 -709h-234zM1422 147v187q48 95 124.5 217.5t241.5 367.5h318v-592h114v-174h-120v-153h-207v147h-471zM1622 321h272v424h-11 q-194 -295 -261 -419v-5z" />
<glyph unicode="&#xbf;" horiz-adv-x="1108" d="M105 39q0 212 212 339q98 58 132.5 105.5t34.5 122.5v57h232l1 -68q7 -111 -37 -185t-149 -137q-94 -56 -130 -104.5t-36 -120.5q0 -79 58 -129.5t153 -50.5t154 54t65 146h235q-5 -184 -128 -297t-339 -113q-205 0 -331.5 106.5t-126.5 274.5zM424 980q0 72 45 116 t121 44t121 -44t45 -116t-45 -115.5t-121 -43.5t-121 43.5t-45 115.5z" />
<glyph unicode="&#xc0;" horiz-adv-x="1456" d="M71 0l512 1443h290l513 -1443h-277l-122 369h-531l-124 -369h-261zM288 1895h283l288 -310h-250zM516 573h411l-196 595h-17z" />
<glyph unicode="&#xc1;" horiz-adv-x="1456" d="M71 0l512 1443h290l513 -1443h-277l-122 369h-531l-124 -369h-261zM516 573h411l-196 595h-17zM600 1585l288 310h283l-321 -310h-250z" />
<glyph unicode="&#xc2;" horiz-adv-x="1456" d="M71 0l512 1443h290l513 -1443h-277l-122 369h-531l-124 -369h-261zM322 1585l290 321h232l290 -321h-242l-155 183h-18l-155 -183h-242zM516 573h411l-196 595h-17z" />
<glyph unicode="&#xc3;" horiz-adv-x="1456" d="M71 0l512 1443h290l513 -1443h-277l-122 369h-531l-124 -369h-261zM331 1576q0 142 68 226t183 84q43 0 80 -15t63 -37t48 -44t45 -37t44 -15q91 0 92 145h170q0 -142 -67.5 -225.5t-182.5 -83.5q-52 0 -97.5 23.5t-71.5 51t-56 51t-55 23.5q-91 0 -92 -147h-171z M516 573h411l-196 595h-17z" />
<glyph unicode="&#xc4;" horiz-adv-x="1456" d="M71 0l512 1443h290l513 -1443h-277l-122 369h-531l-124 -369h-261zM362 1718q0 60 41 100.5t102 40.5t102 -40.5t41 -100.5t-41 -100.5t-102 -40.5t-102 40.5t-41 100.5zM516 573h411l-196 595h-17zM807 1718q0 60 41 100.5t102 40.5t102 -40.5t41 -100.5t-41 -100.5 t-102 -40.5t-102 40.5t-41 100.5z" />
<glyph unicode="&#xc5;" horiz-adv-x="1456" d="M71 0l512 1443h290l513 -1443h-277l-122 369h-531l-124 -369h-261zM516 573h411l-196 595h-17zM525 1747q0 84 58.5 141t144.5 57t144.5 -57t58.5 -141q0 -85 -58.5 -142t-144.5 -57t-144.5 57t-58.5 142zM629 1746q0 -42 28 -69.5t71 -27.5t71 27.5t28 69.5 q0 43 -28 70.5t-71 27.5t-71 -27.5t-28 -70.5z" />
<glyph unicode="&#xc6;" horiz-adv-x="2025" d="M71 0l615 1443h1197v-223h-653v-389h616v-211h-616v-397h653v-223h-894v398h-488l-174 -398h-256zM581 603h408v632h-136z" />
<glyph unicode="&#xc7;" horiz-adv-x="1499" d="M117 721q0 352 177.5 555t484.5 203q246 0 417 -144.5t194 -370.5h-254q-27 130 -124 207.5t-233 77.5q-184 0 -291 -141.5t-107 -385.5t107 -386t292 -142q137 0 234 71.5t123 192.5h254q-23 -204 -169.5 -337.5t-368.5 -153.5l-34 -84q97 -3 150 -47.5t53 -124.5 q0 -92 -68.5 -145.5t-190.5 -53.5q-84 0 -146 18v125q44 -14 118 -14q114 0 114 64q0 31 -32 45t-105 14h-59v104l42 100q-270 29 -424 228.5t-154 524.5z" />
<glyph unicode="&#xc8;" horiz-adv-x="1254" d="M178 0v1443h934v-223h-676v-383h639v-210h-639v-404h676v-223h-934zM205 1895h283l288 -310h-250z" />
<glyph unicode="&#xc9;" horiz-adv-x="1254" d="M178 0v1443h934v-223h-676v-383h639v-210h-639v-404h676v-223h-934zM517 1585l288 310h283l-321 -310h-250z" />
<glyph unicode="&#xca;" horiz-adv-x="1254" d="M178 0v1443h934v-223h-676v-383h639v-210h-639v-404h676v-223h-934zM239 1585l290 321h232l290 -321h-242l-155 183h-18l-155 -183h-242z" />
<glyph unicode="&#xcb;" horiz-adv-x="1254" d="M178 0v1443h934v-223h-676v-383h639v-210h-639v-404h676v-223h-934zM279 1718q0 60 41 100.5t102 40.5t102 -40.5t41 -100.5t-41 -100.5t-102 -40.5t-102 40.5t-41 100.5zM724 1718q0 60 41 100.5t102 40.5t102 -40.5t41 -100.5t-41 -100.5t-102 -40.5t-102 40.5 t-41 100.5z" />
<glyph unicode="&#xcc;" horiz-adv-x="614" d="M-133 1895h283l288 -310h-250zM178 0v1443h258v-1443h-258z" />
<glyph unicode="&#xcd;" horiz-adv-x="614" d="M178 0v1443h258v-1443h-258zM179 1585l288 310h283l-321 -310h-250z" />
<glyph unicode="&#xce;" horiz-adv-x="614" d="M-99 1585l290 321h232l290 -321h-242l-155 183h-18l-155 -183h-242zM178 0v1443h258v-1443h-258z" />
<glyph unicode="&#xcf;" horiz-adv-x="614" d="M-59 1718q0 60 41 100.5t102 40.5t102 -40.5t41 -100.5t-41 -100.5t-102 -40.5t-102 40.5t-41 100.5zM178 0v1443h258v-1443h-258zM386 1718q0 60 41 100.5t102 40.5t102 -40.5t41 -100.5t-41 -100.5t-102 -40.5t-102 40.5t-41 100.5z" />
<glyph unicode="&#xd0;" horiz-adv-x="1514" d="M41 634v204h137v605h541q322 0 500.5 -187.5t178.5 -527.5q0 -347 -177.5 -537.5t-501.5 -190.5h-541v634h-137zM436 223h249q216 0 333 130t117 371q0 236 -118.5 366t-331.5 130h-249v-382h235v-204h-235v-411z" />
<glyph unicode="&#xd1;" horiz-adv-x="1554" d="M178 0v1443h224l708 -981h17v981h248v-1443h-223l-708 982h-17v-982h-249zM377 1576q0 142 68 226t183 84q43 0 80 -15t63 -37t48 -44t45 -37t44 -15q91 0 92 145h170q0 -142 -67.5 -225.5t-182.5 -83.5q-52 0 -97.5 23.5t-71.5 51t-56 51t-55 23.5q-91 0 -92 -147h-171z " />
<glyph unicode="&#xd2;" horiz-adv-x="1599" d="M117 722q0 349 184.5 553t499.5 204q314 0 497.5 -204t183.5 -553t-183 -553.5t-498 -204.5q-317 0 -500.5 204t-183.5 554zM361 1895h283l288 -310h-250zM381 722q0 -243 112.5 -386t307.5 -143q192 0 304.5 143.5t112.5 385.5t-112.5 385t-304.5 143 q-193 0 -306.5 -143t-113.5 -385z" />
<glyph unicode="&#xd3;" horiz-adv-x="1599" d="M117 722q0 349 184.5 553t499.5 204q314 0 497.5 -204t183.5 -553t-183 -553.5t-498 -204.5q-317 0 -500.5 204t-183.5 554zM381 722q0 -243 112.5 -386t307.5 -143q192 0 304.5 143.5t112.5 385.5t-112.5 385t-304.5 143q-193 0 -306.5 -143t-113.5 -385zM673 1585 l288 310h283l-321 -310h-250z" />
<glyph unicode="&#xd4;" horiz-adv-x="1599" d="M117 722q0 349 184.5 553t499.5 204q314 0 497.5 -204t183.5 -553t-183 -553.5t-498 -204.5q-317 0 -500.5 204t-183.5 554zM381 722q0 -243 112.5 -386t307.5 -143q192 0 304.5 143.5t112.5 385.5t-112.5 385t-304.5 143q-193 0 -306.5 -143t-113.5 -385zM395 1585 l290 321h232l290 -321h-242l-155 183h-18l-155 -183h-242z" />
<glyph unicode="&#xd5;" horiz-adv-x="1599" d="M117 722q0 349 184.5 553t499.5 204q314 0 497.5 -204t183.5 -553t-183 -553.5t-498 -204.5q-317 0 -500.5 204t-183.5 554zM381 722q0 -243 112.5 -386t307.5 -143q192 0 304.5 143.5t112.5 385.5t-112.5 385t-304.5 143q-193 0 -306.5 -143t-113.5 -385zM404 1576 q0 142 68 226t183 84q43 0 80 -15t63 -37t48 -44t45 -37t44 -15q91 0 92 145h170q0 -142 -67.5 -225.5t-182.5 -83.5q-52 0 -97.5 23.5t-71.5 51t-56 51t-55 23.5q-91 0 -92 -147h-171z" />
<glyph unicode="&#xd6;" horiz-adv-x="1599" d="M117 722q0 349 184.5 553t499.5 204q314 0 497.5 -204t183.5 -553t-183 -553.5t-498 -204.5q-317 0 -500.5 204t-183.5 554zM381 722q0 -243 112.5 -386t307.5 -143q192 0 304.5 143.5t112.5 385.5t-112.5 385t-304.5 143q-193 0 -306.5 -143t-113.5 -385zM435 1718 q0 60 41 100.5t102 40.5t102 -40.5t41 -100.5t-41 -100.5t-102 -40.5t-102 40.5t-41 100.5zM880 1718q0 60 41 100.5t102 40.5t102 -40.5t41 -100.5t-41 -100.5t-102 -40.5t-102 40.5t-41 100.5z" />
<glyph unicode="&#xd7;" d="M237 277l305 306l-305 305l149 154l306 -305l305 305l150 -154l-305 -305l305 -306l-150 -153l-305 304l-306 -304z" />
<glyph unicode="&#xd8;" horiz-adv-x="1577" d="M117 722q0 349 184.5 553t499.5 204q216 0 372 -98l84 119l104 -62l-92 -132q103 -99 158 -248t55 -336q0 -349 -183 -553.5t-498 -204.5q-231 0 -394 111l-95 -136l-101 70l102 145q-196 205 -196 568zM381 722q0 -211 86 -348l565 805q-99 71 -231 71 q-193 0 -306.5 -143t-113.5 -385zM550 279q101 -86 251 -86q192 0 304.5 143.5t112.5 385.5q0 227 -100 369z" />
<glyph unicode="&#xd9;" horiz-adv-x="1550" d="M182 497v946h257v-922q0 -149 89 -237.5t247 -88.5t246.5 88.5t88.5 237.5v922h258v-946q0 -239 -161 -386t-432 -147t-432 147t-161 386zM335 1895h283l288 -310h-250z" />
<glyph unicode="&#xda;" horiz-adv-x="1550" d="M182 497v946h257v-922q0 -149 89 -237.5t247 -88.5t246.5 88.5t88.5 237.5v922h258v-946q0 -239 -161 -386t-432 -147t-432 147t-161 386zM647 1585l288 310h283l-321 -310h-250z" />
<glyph unicode="&#xdb;" horiz-adv-x="1550" d="M182 497v946h257v-922q0 -149 89 -237.5t247 -88.5t246.5 88.5t88.5 237.5v922h258v-946q0 -239 -161 -386t-432 -147t-432 147t-161 386zM369 1585l290 321h232l290 -321h-242l-155 183h-18l-155 -183h-242z" />
<glyph unicode="&#xdc;" horiz-adv-x="1550" d="M182 497v946h257v-922q0 -149 89 -237.5t247 -88.5t246.5 88.5t88.5 237.5v922h258v-946q0 -239 -161 -386t-432 -147t-432 147t-161 386zM409 1718q0 60 41 100.5t102 40.5t102 -40.5t41 -100.5t-41 -100.5t-102 -40.5t-102 40.5t-41 100.5zM854 1718q0 60 41 100.5 t102 40.5t102 -40.5t41 -100.5t-41 -100.5t-102 -40.5t-102 40.5t-41 100.5z" />
<glyph unicode="&#xdd;" horiz-adv-x="1412" d="M71 1443h283l344 -617h17l343 617h283l-506 -879v-564h-258v564zM578 1585l288 310h283l-321 -310h-250z" />
<glyph unicode="&#xde;" horiz-adv-x="1342" d="M178 0v1443h259v-244h331q127 0 230 -52t164.5 -154.5t61.5 -238.5q0 -135 -63 -237.5t-168 -155t-235 -52.5h-322v-309h-258zM436 523h260q123 0 194 59t71 172q0 112 -71 170.5t-193 58.5h-261v-460z" />
<glyph unicode="&#xdf;" horiz-adv-x="1355" d="M204 0v1087q0 185 128 292.5t342 107.5q206 0 335.5 -105t129.5 -272q0 -120 -62 -209t-160 -117v-19q153 -11 244.5 -107t91.5 -255q0 -185 -129.5 -301.5t-344.5 -116.5q-99 0 -167 15v209q56 -16 129 -16q124 0 192.5 60.5t68.5 162.5q0 103 -78.5 162.5t-219.5 59.5 h-68v218h50q98 0 155 57t57 161q0 89 -59.5 145.5t-160.5 56.5q-108 0 -167.5 -61t-59.5 -174v-1041h-247z" />
<glyph unicode="&#xe0;" horiz-adv-x="1179" d="M91 310q0 148 107.5 232t307.5 96l282 17v92q0 81 -53 124t-153 43q-86 0 -142 -29.5t-73 -84.5h-234q15 145 140.5 230.5t320.5 85.5q210 0 324.5 -97t114.5 -272v-747h-239v150h-17q-46 -79 -131.5 -123.5t-192.5 -44.5q-160 0 -261 90t-101 238zM214 1622h277 l249 -347h-242zM337 324q0 -68 52.5 -107.5t136.5 -39.5q112 0 187 64.5t75 159.5v87l-247 -16q-204 -13 -204 -148z" />
<glyph unicode="&#xe1;" horiz-adv-x="1179" d="M91 310q0 148 107.5 232t307.5 96l282 17v92q0 81 -53 124t-153 43q-86 0 -142 -29.5t-73 -84.5h-234q15 145 140.5 230.5t320.5 85.5q210 0 324.5 -97t114.5 -272v-747h-239v150h-17q-46 -79 -131.5 -123.5t-192.5 -44.5q-160 0 -261 90t-101 238zM337 324 q0 -68 52.5 -107.5t136.5 -39.5q112 0 187 64.5t75 159.5v87l-247 -16q-204 -13 -204 -148zM454 1275l249 347h277l-284 -347h-242z" />
<glyph unicode="&#xe2;" horiz-adv-x="1179" d="M91 310q0 148 107.5 232t307.5 96l282 17v92q0 81 -53 124t-153 43q-86 0 -142 -29.5t-73 -84.5h-234q15 145 140.5 230.5t320.5 85.5q210 0 324.5 -97t114.5 -272v-747h-239v150h-17q-46 -79 -131.5 -123.5t-192.5 -44.5q-160 0 -261 90t-101 238zM187 1243l277 348h259 l277 -348h-239l-159 215h-17l-159 -215h-239zM337 324q0 -68 52.5 -107.5t136.5 -39.5q112 0 187 64.5t75 159.5v87l-247 -16q-204 -13 -204 -148z" />
<glyph unicode="&#xe3;" horiz-adv-x="1179" d="M91 310q0 148 107.5 232t307.5 96l282 17v92q0 81 -53 124t-153 43q-86 0 -142 -29.5t-73 -84.5h-234q15 145 140.5 230.5t320.5 85.5q210 0 324.5 -97t114.5 -272v-747h-239v150h-17q-46 -79 -131.5 -123.5t-192.5 -44.5q-160 0 -261 90t-101 238zM200 1246 q0 142 68 226t183 84q43 0 80 -15t63 -37t48 -44t45 -37t44 -15q91 0 92 145h170q0 -142 -67.5 -225.5t-182.5 -83.5q-52 0 -97.5 23.5t-71.5 51t-56 51t-55 23.5q-91 0 -92 -147h-171zM337 324q0 -68 52.5 -107.5t136.5 -39.5q112 0 187 64.5t75 159.5v87l-247 -16 q-204 -13 -204 -148z" />
<glyph unicode="&#xe4;" horiz-adv-x="1179" d="M91 310q0 148 107.5 232t307.5 96l282 17v92q0 81 -53 124t-153 43q-86 0 -142 -29.5t-73 -84.5h-234q15 145 140.5 230.5t320.5 85.5q210 0 324.5 -97t114.5 -272v-747h-239v150h-17q-46 -79 -131.5 -123.5t-192.5 -44.5q-160 0 -261 90t-101 238zM228 1383 q0 60 41 100.5t102 40.5t102 -40.5t41 -100.5t-41 -100.5t-102 -40.5t-102 40.5t-41 100.5zM337 324q0 -68 52.5 -107.5t136.5 -39.5q112 0 187 64.5t75 159.5v87l-247 -16q-204 -13 -204 -148zM673 1383q0 60 41 100.5t102 40.5t102 -40.5t41 -100.5t-41 -100.5t-102 -40.5 t-102 40.5t-41 100.5z" />
<glyph unicode="&#xe5;" horiz-adv-x="1179" d="M91 310q0 148 107.5 232t307.5 96l282 17v92q0 81 -53 124t-153 43q-86 0 -142 -29.5t-73 -84.5h-234q15 145 140.5 230.5t320.5 85.5q210 0 324.5 -97t114.5 -272v-747h-239v150h-17q-46 -79 -131.5 -123.5t-192.5 -44.5q-160 0 -261 90t-101 238zM337 324 q0 -68 52.5 -107.5t136.5 -39.5q112 0 187 64.5t75 159.5v87l-247 -16q-204 -13 -204 -148zM353 1479q0 101 69.5 168t171.5 67t171 -67t69 -168t-69 -168.5t-171 -67.5t-171.5 67.5t-69.5 168.5zM482 1478q0 -47 31.5 -78.5t80.5 -31.5q48 0 79.5 31.5t31.5 78.5 q0 48 -31.5 79.5t-79.5 31.5t-80 -31.5t-32 -79.5z" />
<glyph unicode="&#xe6;" horiz-adv-x="1878" d="M91 310q0 148 107.5 232t307.5 96l282 17v82q0 87 -53.5 132t-152.5 45q-180 0 -215 -114h-234q14 141 136.5 228.5t304.5 87.5q127 0 216.5 -45t137.5 -123h17q54 76 149 122t207 46q223 0 351 -145.5t128 -396.5v-84h-754v-23q5 -132 80.5 -211.5t197.5 -79.5 q170 0 231 125h234q-36 -151 -159.5 -237t-304.5 -86q-129 0 -235.5 57.5t-154.5 152.5h-17q-60 -99 -165 -154.5t-241 -55.5q-181 0 -291 91.5t-110 240.5zM337 322q0 -68 53.5 -107.5t142.5 -39.5q112 0 183.5 66.5t71.5 160.5v86l-247 -16q-204 -13 -204 -150zM1026 658 h507q-4 116 -72.5 188.5t-173.5 72.5q-113 0 -183.5 -71t-77.5 -190z" />
<glyph unicode="&#xe7;" horiz-adv-x="1182" d="M98 550q0 267 138 416.5t384 149.5q206 0 331.5 -106.5t145.5 -283.5h-236q-18 83 -80 132.5t-161 49.5q-128 0 -199.5 -94t-71.5 -264q0 -172 72 -268t199 -96q97 0 159.5 45t81.5 130h236q-18 -156 -122 -257t-274 -121l-40 -100q97 -3 150 -47.5t53 -124.5 q0 -92 -68.5 -145.5t-190.5 -53.5q-84 0 -146 18v125q44 -14 118 -14q114 0 114 64q0 31 -32 45t-105 14h-59v104l48 114q-211 24 -328 172.5t-117 395.5z" />
<glyph unicode="&#xe8;" horiz-adv-x="1208" d="M98 543q0 264 138 418.5t376 154.5q234 0 366.5 -146.5t132.5 -405.5v-80h-764v-13q5 -137 78.5 -216.5t195.5 -79.5q188 0 244 126h235q-35 -150 -164.5 -236.5t-321.5 -86.5q-241 0 -378.5 150.5t-137.5 414.5zM232 1622h277l249 -347h-242zM348 653h515 q-4 122 -72 194t-180 72q-111 0 -183 -73t-80 -193z" />
<glyph unicode="&#xe9;" horiz-adv-x="1208" d="M98 543q0 264 138 418.5t376 154.5q234 0 366.5 -146.5t132.5 -405.5v-80h-764v-13q5 -137 78.5 -216.5t195.5 -79.5q188 0 244 126h235q-35 -150 -164.5 -236.5t-321.5 -86.5q-241 0 -378.5 150.5t-137.5 414.5zM348 653h515q-4 122 -72 194t-180 72q-111 0 -183 -73 t-80 -193zM472 1275l249 347h277l-284 -347h-242z" />
<glyph unicode="&#xea;" horiz-adv-x="1208" d="M98 543q0 264 138 418.5t376 154.5q234 0 366.5 -146.5t132.5 -405.5v-80h-764v-13q5 -137 78.5 -216.5t195.5 -79.5q188 0 244 126h235q-35 -150 -164.5 -236.5t-321.5 -86.5q-241 0 -378.5 150.5t-137.5 414.5zM205 1243l277 348h259l277 -348h-239l-159 215h-17 l-159 -215h-239zM348 653h515q-4 122 -72 194t-180 72q-111 0 -183 -73t-80 -193z" />
<glyph unicode="&#xeb;" horiz-adv-x="1208" d="M98 543q0 264 138 418.5t376 154.5q234 0 366.5 -146.5t132.5 -405.5v-80h-764v-13q5 -137 78.5 -216.5t195.5 -79.5q188 0 244 126h235q-35 -150 -164.5 -236.5t-321.5 -86.5q-241 0 -378.5 150.5t-137.5 414.5zM246 1383q0 60 41 100.5t102 40.5t102 -40.5t41 -100.5 t-41 -100.5t-102 -40.5t-102 40.5t-41 100.5zM348 653h515q-4 122 -72 194t-180 72q-111 0 -183 -73t-80 -193zM691 1383q0 60 41 100.5t102 40.5t102 -40.5t41 -100.5t-41 -100.5t-102 -40.5t-102 40.5t-41 100.5z" />
<glyph unicode="&#xec;" horiz-adv-x="557" d="M-102 1622h277l249 -347h-242zM155 0v1094h247v-1094h-247z" />
<glyph unicode="&#xed;" horiz-adv-x="557" d="M138 1275l249 347h277l-284 -347h-242zM155 0v1094h247v-1094h-247z" />
<glyph unicode="&#xee;" horiz-adv-x="557" d="M-129 1243l277 348h259l277 -348h-239l-159 215h-17l-159 -215h-239zM155 0v1094h247v-1094h-247z" />
<glyph unicode="&#xef;" horiz-adv-x="557" d="M-88 1383q0 60 41 100.5t102 40.5t102 -40.5t41 -100.5t-41 -100.5t-102 -40.5t-102 40.5t-41 100.5zM155 0v1094h247v-1094h-247zM357 1383q0 60 41 100.5t102 40.5t102 -40.5t41 -100.5t-41 -100.5t-102 -40.5t-102 40.5t-41 100.5z" />
<glyph unicode="&#xf0;" horiz-adv-x="1244" d="M101 530q0 234 126.5 379.5t329.5 145.5q94 0 176 -39.5t120 -102.5h16q-42 155 -175 307l-282 -93l-48 131l229 76q-68 67 -227 186h306q68 -53 128 -115l260 86l49 -132l-206 -68q118 -147 180.5 -326t62.5 -373q0 -279 -141.5 -444.5t-379.5 -165.5q-240 0 -382 148.5 t-142 399.5zM356 529q0 -155 73.5 -245.5t199.5 -90.5t200 90.5t74 244.5q0 153 -74.5 244.5t-199.5 91.5t-199 -91t-74 -244z" />
<glyph unicode="&#xf1;" horiz-adv-x="1252" d="M152 0v1094h239v-175h17q40 94 122.5 145.5t202.5 51.5q182 0 279.5 -106t97.5 -302v-708h-248v649q0 251 -221 251q-111 0 -176 -71t-65 -192v-637h-248zM242 1246q0 142 68 226t183 84q43 0 80 -15t63 -37t48 -44t45 -37t44 -15q91 0 92 145h170q0 -142 -67.5 -225.5 t-182.5 -83.5q-52 0 -97.5 23.5t-71.5 51t-56 51t-55 23.5q-91 0 -92 -147h-171z" />
<glyph unicode="&#xf2;" horiz-adv-x="1248" d="M98 547q0 264 141 416.5t385 152.5q245 0 385.5 -152t140.5 -417q0 -266 -140.5 -417.5t-385.5 -151.5q-246 0 -386 151.5t-140 417.5zM244 1622h277l249 -347h-242zM352 547q0 -172 71 -266.5t201 -94.5t200.5 94.5t70.5 266.5q0 171 -71 266t-200 95q-130 0 -201 -95 t-71 -266z" />
<glyph unicode="&#xf3;" horiz-adv-x="1248" d="M98 547q0 264 141 416.5t385 152.5q245 0 385.5 -152t140.5 -417q0 -266 -140.5 -417.5t-385.5 -151.5q-246 0 -386 151.5t-140 417.5zM352 547q0 -172 71 -266.5t201 -94.5t200.5 94.5t70.5 266.5q0 171 -71 266t-200 95q-130 0 -201 -95t-71 -266zM484 1275l249 347 h277l-284 -347h-242z" />
<glyph unicode="&#xf4;" horiz-adv-x="1248" d="M98 547q0 264 141 416.5t385 152.5q245 0 385.5 -152t140.5 -417q0 -266 -140.5 -417.5t-385.5 -151.5q-246 0 -386 151.5t-140 417.5zM217 1243l277 348h259l277 -348h-239l-159 215h-17l-159 -215h-239zM352 547q0 -172 71 -266.5t201 -94.5t200.5 94.5t70.5 266.5 q0 171 -71 266t-200 95q-130 0 -201 -95t-71 -266z" />
<glyph unicode="&#xf5;" horiz-adv-x="1248" d="M98 547q0 264 141 416.5t385 152.5q245 0 385.5 -152t140.5 -417q0 -266 -140.5 -417.5t-385.5 -151.5q-246 0 -386 151.5t-140 417.5zM230 1246q0 142 68 226t183 84q43 0 80 -15t63 -37t48 -44t45 -37t44 -15q91 0 92 145h170q0 -142 -67.5 -225.5t-182.5 -83.5 q-52 0 -97.5 23.5t-71.5 51t-56 51t-55 23.5q-91 0 -92 -147h-171zM352 547q0 -172 71 -266.5t201 -94.5t200.5 94.5t70.5 266.5q0 171 -71 266t-200 95q-130 0 -201 -95t-71 -266z" />
<glyph unicode="&#xf6;" horiz-adv-x="1248" d="M98 547q0 264 141 416.5t385 152.5q245 0 385.5 -152t140.5 -417q0 -266 -140.5 -417.5t-385.5 -151.5q-246 0 -386 151.5t-140 417.5zM258 1383q0 60 41 100.5t102 40.5t102 -40.5t41 -100.5t-41 -100.5t-102 -40.5t-102 40.5t-41 100.5zM352 547q0 -172 71 -266.5 t201 -94.5t200.5 94.5t70.5 266.5q0 171 -71 266t-200 95q-130 0 -201 -95t-71 -266zM703 1383q0 60 41 100.5t102 40.5t102 -40.5t41 -100.5t-41 -100.5t-102 -40.5t-102 40.5t-41 100.5z" />
<glyph unicode="&#xf7;" d="M163 484v197h1057v-197h-1057zM540 203q0 66 42.5 107.5t109.5 41.5t109 -41.5t42 -107.5q0 -65 -42 -106.5t-109 -41.5t-109.5 41.5t-42.5 106.5zM540 962q0 66 42.5 107.5t109.5 41.5t109 -41.5t42 -107.5q0 -65 -42 -106.5t-109 -41.5t-109.5 41.5t-42.5 106.5z" />
<glyph unicode="&#xf8;" horiz-adv-x="1248" d="M98 547q0 264 141 416.5t385 152.5q147 0 259 -57l61 94l104 -61l-65 -101q167 -155 167 -444q0 -266 -140.5 -417.5t-385.5 -151.5q-146 0 -256 55l-60 -93l-103 65l62 96q-169 152 -169 446zM352 547q0 -142 51 -235l359 559q-59 37 -138 37q-130 0 -201 -95t-71 -266z M488 221q58 -35 136 -35q130 0 200.5 94.5t70.5 266.5q0 141 -49 231z" />
<glyph unicode="&#xf9;" horiz-adv-x="1256" d="M142 383v711h248v-649q0 -126 53 -187.5t164 -61.5q120 0 184.5 69t64.5 192v637h248v-1094h-239v174h-17q-83 -196 -327 -196q-179 0 -279 106.5t-100 298.5zM243 1622h277l249 -347h-242z" />
<glyph unicode="&#xfa;" horiz-adv-x="1256" d="M142 383v711h248v-649q0 -126 53 -187.5t164 -61.5q120 0 184.5 69t64.5 192v637h248v-1094h-239v174h-17q-83 -196 -327 -196q-179 0 -279 106.5t-100 298.5zM483 1275l249 347h277l-284 -347h-242z" />
<glyph unicode="&#xfb;" horiz-adv-x="1256" d="M142 383v711h248v-649q0 -126 53 -187.5t164 -61.5q120 0 184.5 69t64.5 192v637h248v-1094h-239v174h-17q-83 -196 -327 -196q-179 0 -279 106.5t-100 298.5zM216 1243l277 348h259l277 -348h-239l-159 215h-17l-159 -215h-239z" />
<glyph unicode="&#xfc;" horiz-adv-x="1256" d="M142 383v711h248v-649q0 -126 53 -187.5t164 -61.5q120 0 184.5 69t64.5 192v637h248v-1094h-239v174h-17q-83 -196 -327 -196q-179 0 -279 106.5t-100 298.5zM257 1383q0 60 41 100.5t102 40.5t102 -40.5t41 -100.5t-41 -100.5t-102 -40.5t-102 40.5t-41 100.5z M702 1383q0 60 41 100.5t102 40.5t102 -40.5t41 -100.5t-41 -100.5t-102 -40.5t-102 40.5t-41 100.5z" />
<glyph unicode="&#xfd;" horiz-adv-x="1183" d="M60 1094h272l256 -854h17l255 854h262l-395 -1129q-69 -203 -169.5 -282.5t-285.5 -79.5q-77 0 -98 4v203q19 -4 68 -4q79 0 125.5 33t70.5 108l13 48zM452 1275l249 347h277l-284 -347h-242z" />
<glyph unicode="&#xfe;" horiz-adv-x="1310" d="M159 -350v1857h242v-594h17q47 93 136.5 146t201.5 53q209 0 329.5 -151t120.5 -414q0 -261 -120.5 -413t-327.5 -152q-117 0 -205 48.5t-129 135.5h-18v-516h-247zM402 547q1 -164 74.5 -259t200.5 -95q129 0 201.5 94t72.5 260t-72.5 260t-200.5 94q-127 0 -201 -95 t-75 -259z" />
<glyph unicode="&#xff;" horiz-adv-x="1183" d="M60 1094h272l256 -854h17l255 854h262l-395 -1129q-69 -203 -169.5 -282.5t-285.5 -79.5q-77 0 -98 4v203q19 -4 68 -4q79 0 125.5 33t70.5 108l13 48zM226 1383q0 60 41 100.5t102 40.5t102 -40.5t41 -100.5t-41 -100.5t-102 -40.5t-102 40.5t-41 100.5zM671 1383 q0 60 41 100.5t102 40.5t102 -40.5t41 -100.5t-41 -100.5t-102 -40.5t-102 40.5t-41 100.5z" />
<glyph unicode="&#x152;" horiz-adv-x="2291" d="M124 722q0 353 173.5 555t477.5 202q152 0 284.5 -74t189.5 -191h18v229h908v-223h-688v-383h651v-210h-651v-404h688v-223h-908v238h-18q-59 -123 -189.5 -198.5t-284.5 -75.5q-304 0 -477.5 202t-173.5 556zM387 722q0 -245 114.5 -387t312.5 -142q190 0 301 142.5 t111 386.5t-111 386t-301 142q-197 0 -312 -142.5t-115 -385.5z" />
<glyph unicode="&#x153;" horiz-adv-x="2006" d="M101 546q0 265 138.5 417.5t379.5 152.5q131 0 233.5 -53.5t160.5 -151.5h17q57 96 159.5 150.5t230.5 54.5q225 0 357.5 -148.5t132.5 -402.5v-80h-764v-13q4 -137 77.5 -216.5t195.5 -79.5q189 0 245 125h233q-35 -150 -163 -236.5t-313 -86.5q-131 0 -236.5 54 t-155.5 147h-17q-51 -92 -156 -146.5t-238 -54.5q-240 0 -378.5 152.5t-138.5 415.5zM356 546q0 -171 70.5 -265.5t200.5 -94.5q129 0 200 94.5t71 265.5q0 172 -71 267t-200 95t-200 -95t-71 -267zM1146 653h515q-4 122 -71.5 194t-179.5 72q-111 0 -183 -72.5t-81 -193.5z " />
<glyph unicode="&#x178;" horiz-adv-x="1412" d="M71 1443h283l344 -617h17l343 617h283l-506 -879v-564h-258v564zM340 1718q0 60 41 100.5t102 40.5t102 -40.5t41 -100.5t-41 -100.5t-102 -40.5t-102 40.5t-41 100.5zM785 1718q0 60 41 100.5t102 40.5t102 -40.5t41 -100.5t-41 -100.5t-102 -40.5t-102 40.5t-41 100.5z " />
<glyph unicode="&#x2c6;" horiz-adv-x="1097" d="M142 1243l277 348h259l277 -348h-239l-159 215h-17l-159 -215h-239z" />
<glyph unicode="&#x2dc;" horiz-adv-x="1096" d="M151 1267q0 142 68 226t183 84q43 0 80 -15t63 -37t48 -44t45 -37t44 -15q91 0 92 145h170q0 -142 -67.5 -225.5t-182.5 -83.5q-52 0 -97.5 23.5t-71.5 51t-56 51t-55 23.5q-91 0 -92 -147h-171z" />
<glyph unicode="&#x2000;" horiz-adv-x="972" />
<glyph unicode="&#x2001;" horiz-adv-x="1945" />
<glyph unicode="&#x2002;" horiz-adv-x="972" />
<glyph unicode="&#x2003;" horiz-adv-x="1945" />
<glyph unicode="&#x2004;" horiz-adv-x="648" />
<glyph unicode="&#x2005;" horiz-adv-x="486" />
<glyph unicode="&#x2006;" horiz-adv-x="324" />
<glyph unicode="&#x2007;" horiz-adv-x="324" />
<glyph unicode="&#x2008;" horiz-adv-x="243" />
<glyph unicode="&#x2009;" horiz-adv-x="389" />
<glyph unicode="&#x200a;" horiz-adv-x="108" />
<glyph unicode="&#x2010;" horiz-adv-x="983" d="M163 465v233h657v-233h-657z" />
<glyph unicode="&#x2011;" horiz-adv-x="983" d="M163 465v233h657v-233h-657z" />
<glyph unicode="&#x2012;" horiz-adv-x="983" d="M163 465v233h657v-233h-657z" />
<glyph unicode="&#x2013;" horiz-adv-x="1024" d="M0 465v233h1024v-233h-1024z" />
<glyph unicode="&#x2014;" horiz-adv-x="2048" d="M0 465v233h2048v-233h-2048z" />
<glyph unicode="&#x2018;" horiz-adv-x="634" d="M129 858l190 585h174l-110 -585h-254z" />
<glyph unicode="&#x2019;" horiz-adv-x="634" d="M163 858l93 585h254l-173 -585h-174z" />
<glyph unicode="&#x201a;" horiz-adv-x="634" d="M156 -382l96 604h251l-170 -604h-177z" />
<glyph unicode="&#x201c;" horiz-adv-x="1087" d="M129 838l184 605h184l-116 -605h-252zM578 838l166 605h184l-99 -605h-251z" />
<glyph unicode="&#x201d;" horiz-adv-x="1087" d="M160 838l99 605h251l-167 -605h-183zM591 838l116 605h251l-184 -605h-183z" />
<glyph unicode="&#x201e;" horiz-adv-x="1087" d="M160 -382l96 604h251l-170 -604h-177zM591 -382l113 604h251l-187 -604h-177z" />
<glyph unicode="&#x2022;" horiz-adv-x="1032" d="M179 567q0 143 98 242t239 99t239 -99t98 -242q0 -142 -98 -241t-239 -99t-239 99t-98 241z" />
<glyph unicode="&#x2026;" horiz-adv-x="1771" d="M177 137q0 69 45 113.5t115 44.5q71 0 115.5 -44.5t44.5 -113.5q0 -68 -44.5 -113t-115.5 -45q-70 0 -115 45t-45 113zM726 137q0 69 45 113.5t115 44.5q71 0 115.5 -44.5t44.5 -113.5q0 -68 -44.5 -113t-115.5 -45q-70 0 -115 45t-45 113zM1267 137q0 69 45 113.5 t115 44.5q71 0 115.5 -44.5t44.5 -113.5q0 -68 -44.5 -113t-115.5 -45q-70 0 -115 45t-45 113z" />
<glyph unicode="&#x202f;" horiz-adv-x="389" />
<glyph unicode="&#x2039;" horiz-adv-x="927" d="M166 561v8l349 413h246l-348 -410v-12l348 -411h-249z" />
<glyph unicode="&#x203a;" horiz-adv-x="927" d="M166 149l348 411v12l-348 410h246l349 -413v-8l-346 -412h-249z" />
<glyph unicode="&#x205f;" horiz-adv-x="486" />
<glyph unicode="&#x20ac;" d="M113 489v152h172q-3 39 -3 80q0 40 3 79h-172v152h196q64 248 258 382.5t471 134.5q130 0 202 -23v-223q-75 18 -199 18q-163 0 -283.5 -74.5t-175.5 -214.5h534v-152h-570q-4 -33 -4 -79q0 -45 4 -80h570v-152h-534q55 -139 174.5 -213.5t281.5 -74.5q145 0 205 16v-225 q-72 -18 -205 -18q-276 0 -470 134t-258 381h-197z" />
<glyph unicode="&#x2122;" horiz-adv-x="2036" d="M46 1261v182h769v-182h-280v-718h-210v718h-279zM967 543v900h249l210 -554h11l210 554h249v-900h-195v571h-10l-193 -503h-132l-193 503h-11v-571h-195z" />
<glyph unicode="&#x25fc;" horiz-adv-x="1095" d="M0 0v1095h1095v-1095h-1095z" />
<glyph unicode="&#xfb01;" horiz-adv-x="1358" d="M53 889v198h179v115q0 164 86.5 245t267.5 81q75 0 138 -11v-182q-33 5 -85 5q-86 0 -124.5 -37.5t-38.5 -116.5v-99h238v-198h-235v-889h-247v889h-179zM926 1409q0 60 43 98.5t110 38.5q68 0 110.5 -38.5t42.5 -98.5t-42.5 -98.5t-110.5 -38.5q-67 0 -110 38.5 t-43 98.5zM956 0v1094h247v-1094h-247z" />
<glyph unicode="&#xfb02;" horiz-adv-x="1372" d="M53 889v198h179v115q0 164 86.5 245t267.5 81q75 0 138 -11v-182q-33 5 -85 5q-86 0 -124.5 -37.5t-38.5 -116.5v-99h238v-198h-235v-889h-247v889h-179zM963 0v1517h248v-1517h-248z" />
</font>
</defs>
</svg>
