<?xml version="1.0" standalone="no"?>
<!DOCTYPE svg PUBLIC "-//W3C//DTD SVG 1.1//EN" "http://www.w3.org/Graphics/SVG/1.1/DTD/svg11.dtd" >
<svg xmlns="http://www.w3.org/2000/svg" xmlns:xlink="http://www.w3.org/1999/xlink" version="1.1">
<metadata></metadata>
<defs>
<font id="sf_pro_textheavy" horiz-adv-x="1461" >
<font-face units-per-em="2048" ascent="1638" descent="-410" />
<missing-glyph horiz-adv-x="502" />
<glyph horiz-adv-x="0" />
<glyph unicode="&#xd;" horiz-adv-x="0" />
<glyph unicode=" "  horiz-adv-x="502" />
<glyph unicode="&#x09;" horiz-adv-x="502" />
<glyph unicode="&#xa0;" horiz-adv-x="502" />
<glyph unicode="!" horiz-adv-x="778" d="M185 147q0 87 53.5 135t150.5 48t151 -48t54 -135q0 -86 -54 -134t-151 -48t-150.5 48t-53.5 134zM197 1443h384l-32 -970h-320z" />
<glyph unicode="&#x22;" horiz-adv-x="1079" d="M137 802v641h298v-641h-298zM645 802v641h297v-641h-297z" />
<glyph unicode="#" horiz-adv-x="1394" d="M27 368l48 253h222l44 221h-222l48 251h223l70 351h262l-68 -351h222l70 351h264l-70 -351h230l-48 -251h-232l-44 -221h231l-48 -253h-233l-72 -368h-264l74 368h-224l-73 -368h-262l72 368h-220zM533 594h264l57 274h-266z" />
<glyph unicode="$" d="M136 416h347q4 -65 55.5 -111t129.5 -54v316l-119 25q-190 42 -288.5 147t-98.5 268q0 193 132.5 309t373.5 133v135h143v-136q221 -21 351.5 -137t132.5 -293h-336q-2 58 -44 103.5t-104 55.5v-305l119 -22q395 -75 395 -411q0 -196 -133.5 -312.5t-380.5 -136.5v-125 h-143v123q-252 13 -391.5 125.5t-140.5 302.5zM514 1042q0 -109 154 -141v277q-68 -4 -111 -42t-43 -94zM811 251q80 7 125.5 46t45.5 101q0 113 -171 144v-291z" />
<glyph unicode="%" horiz-adv-x="1748" d="M57 1106q0 169 97 271t257 102q161 0 257.5 -102t96.5 -271t-97 -271t-257 -102t-257 102t-97 271zM243 0l542 757l396 686h333l-551 -761l-386 -682h-334zM313 1107q0 -73 26 -115t72 -42q45 0 71 42t26 115q0 75 -25.5 116t-71.5 41t-72 -41.5t-26 -115.5zM985 338 q0 169 96.5 270.5t256.5 101.5t256.5 -101.5t96.5 -270.5t-96.5 -271.5t-256.5 -102.5t-256.5 102.5t-96.5 271.5zM1240 338q0 -73 26 -115t72 -42q45 0 71 42t26 115q0 75 -25.5 116t-71.5 41t-72 -41.5t-26 -115.5z" />
<glyph unicode="&#x26;" horiz-adv-x="1560" d="M102 374q0 122 61.5 211.5t198.5 165.5q21 14 69 38q-98 100 -138.5 174.5t-40.5 153.5q0 149 123 246.5t311 97.5q187 0 304.5 -93t117.5 -241q0 -223 -284 -379l232 -249q42 72 42 214v89h285v-114q0 -115 -33 -220.5t-91 -180.5l276 -287h-379l-100 106 q-74 -63 -190 -98.5t-249 -35.5q-239 0 -377 108t-138 294zM425 404q0 -84 63 -135.5t166 -51.5q69 0 129.5 22.5t94.5 60.5l-291 311q-25 -10 -37 -18q-125 -76 -125 -189zM546 1100q0 -45 27 -89t96 -108q156 82 156 196q0 62 -38.5 101t-99.5 39t-101 -39.5t-40 -99.5z " />
<glyph unicode="'" horiz-adv-x="571" d="M137 802v641h298v-641h-298z" />
<glyph unicode="(" horiz-adv-x="929" d="M213 609q0 573 303 921h333q-115 -144 -192.5 -401.5t-77.5 -517.5q0 -259 77.5 -517.5t192.5 -405.5h-333q-303 354 -303 921z" />
<glyph unicode=")" horiz-adv-x="929" d="M79 -312q115 147 192.5 405.5t77.5 517.5q0 260 -77.5 518t-192.5 401h334q303 -348 303 -921q0 -566 -303 -921h-334z" />
<glyph unicode="*" horiz-adv-x="1032" d="M109 973l277 100l-277 99l117 203l226 -192l-54 292h236l-54 -292l226 192l117 -203l-277 -99l277 -100l-117 -203l-223 188l51 -288h-236l51 288l-223 -188z" />
<glyph unicode="+" d="M174 436v301h401v397h311v-397h401v-301h-401v-400h-311v400h-401z" />
<glyph unicode="," horiz-adv-x="767" d="M140 -400l90 646h336l-196 -646h-230z" />
<glyph unicode="-" horiz-adv-x="1006" d="M174 425v316h658v-316h-658z" />
<glyph unicode="." horiz-adv-x="767" d="M182 157q0 86 54 138.5t147 52.5q94 0 148 -52.5t54 -138.5q0 -85 -54 -137.5t-148 -52.5q-93 0 -147 52.5t-54 137.5z" />
<glyph unicode="/" horiz-adv-x="852" d="M0 -312l518 1842h334l-518 -1842h-334z" />
<glyph unicode="0" horiz-adv-x="1460" d="M124 725q0 356 162.5 556.5t443.5 200.5t443.5 -200.5t162.5 -557.5q0 -356 -162.5 -559.5t-443.5 -203.5q-282 0 -444 203t-162 561zM497 725q0 -234 62.5 -358t170.5 -124t171 124t63 358q0 232 -63 353.5t-171 121.5t-170.5 -121.5t-62.5 -353.5z" />
<glyph unicode="1" horiz-adv-x="1101" d="M122 877v316l367 250h367v-1443h-367v1112h-19z" />
<glyph unicode="2" horiz-adv-x="1361" d="M117 995v6q0 215 154 348t405 133q242 0 390.5 -118t148.5 -310q0 -120 -79 -239.5t-271 -290.5l-238 -219v-19h608v-286h-1097v245l456 429q158 146 212 218t54 136q0 80 -54 128.5t-143 48.5q-93 0 -151.5 -57t-58.5 -146v-7h-336z" />
<glyph unicode="3" horiz-adv-x="1415" d="M118 428h350q4 -83 66.5 -130.5t166.5 -47.5q98 0 159 50.5t61 131.5q0 83 -60 131t-165 48h-177v253h177q92 0 148 47.5t56 126.5t-55.5 124.5t-151.5 45.5q-94 0 -153 -51.5t-62 -136.5h-333q4 212 154.5 337t401.5 125q240 0 390 -109.5t150 -284.5q0 -124 -75.5 -214 t-197.5 -113v-19q149 -16 237.5 -107.5t88.5 -230.5q0 -196 -167 -319.5t-432 -123.5q-253 0 -410 127.5t-167 339.5z" />
<glyph unicode="4" horiz-adv-x="1459" d="M112 234v307q184 352 546 902h509v-923h180v-286h-180v-234h-347v234h-708zM429 507h400v674h-18q-176 -271 -382 -656v-18z" />
<glyph unicode="5" horiz-adv-x="1408" d="M155 420h333q13 -79 78 -127.5t156 -48.5q101 0 165 64t64 169q0 107 -64.5 173.5t-165.5 66.5q-145 0 -220 -119h-323l68 845h960v-286h-677l-27 -335h19q92 148 306 148q205 0 337.5 -136.5t132.5 -347.5q0 -235 -159 -380t-419 -145q-248 0 -404 130t-160 329z" />
<glyph unicode="6" horiz-adv-x="1451" d="M123 716q0 355 168 560.5t458 205.5q218 0 373.5 -115.5t184.5 -297.5h-359q-17 59 -71.5 94.5t-128.5 35.5q-133 0 -210.5 -125.5t-67.5 -325.5h19q48 101 142 155.5t219 54.5q205 0 340 -135.5t135 -341.5q0 -228 -162 -373.5t-415 -145.5q-154 0 -276.5 60t-200.5 174 q-148 195 -148 520zM518 472q0 -96 65.5 -162t161.5 -66t162 65.5t66 160.5q0 96 -65.5 160.5t-162.5 64.5t-162 -64t-65 -159z" />
<glyph unicode="7" horiz-adv-x="1277" d="M96 1161v283h1074v-284l-583 -1160h-384l599 1142v19h-706z" />
<glyph unicode="8" horiz-adv-x="1481" d="M124 385q0 133 89.5 233.5t238.5 135.5v19q-122 26 -196 111.5t-74 199.5q0 173 157 285.5t401 112.5t401 -112.5t157 -285.5q0 -114 -74 -199.5t-196 -111.5v-19q148 -27 238.5 -127.5t90.5 -238.5q0 -191 -170.5 -309t-447.5 -118q-276 0 -445.5 117t-169.5 307z M508 419q0 -89 64.5 -144.5t167.5 -55.5t167 55.5t64 144.5t-64.5 145t-166.5 56q-103 0 -167.5 -56t-64.5 -145zM543 1050q0 -78 56 -129t141 -51t140.5 51t55.5 129t-55.5 129.5t-140.5 51.5q-86 0 -141.5 -51.5t-55.5 -129.5z" />
<glyph unicode="9" horiz-adv-x="1451" d="M126 962q0 228 162 374t415 146q153 0 275 -60t202 -174q148 -198 148 -521q0 -355 -168 -560t-459 -205q-143 0 -263.5 52t-197.5 146t-96 215h359q17 -60 71.5 -95.5t128.5 -35.5q133 0 210.5 125.5t67.5 325.5h-10h-9q-49 -101 -142.5 -155t-218.5 -54 q-205 0 -340 135.5t-135 340.5zM478 973q0 -96 65 -160t163 -64q97 0 162 64t65 159q0 96 -65.5 161.5t-161.5 65.5t-162 -65.5t-66 -160.5z" />
<glyph unicode=":" horiz-adv-x="767" d="M182 157q0 86 54 138.5t147 52.5q94 0 148 -52.5t54 -138.5q0 -85 -54 -137.5t-148 -52.5q-93 0 -147 52.5t-54 137.5zM182 883q0 85 54 137.5t147 52.5q94 0 148 -52.5t54 -137.5t-54 -137.5t-148 -52.5q-93 0 -147 52.5t-54 137.5z" />
<glyph unicode=";" horiz-adv-x="767" d="M124 -400l97 646h336l-189 -646h-244zM182 883q0 85 54 137.5t147 52.5q94 0 148 -52.5t54 -137.5t-54 -137.5t-148 -52.5q-93 0 -147 52.5t-54 137.5z" />
<glyph unicode="&#x3c;" d="M235 454v271l991 490v-345l-630 -271v-19l630 -271v-345z" />
<glyph unicode="=" d="M177 178v302h1107v-302h-1107zM177 692v302h1107v-302h-1107z" />
<glyph unicode="&#x3e;" d="M235 -36v345l630 271v19l-630 271v345l991 -490v-271z" />
<glyph unicode="?" horiz-adv-x="1189" d="M76 1023q2 198 138.5 315.5t374.5 117.5q227 0 364.5 -110t137.5 -290q0 -110 -52.5 -190.5t-163.5 -144.5q-103 -60 -139 -104t-36 -114v-47h-312l-3 40q-14 127 25 203.5t145 137.5q102 60 136.5 102t34.5 108q0 61 -44.5 99t-115.5 38q-72 0 -117.5 -44t-47.5 -117 h-325zM348 147q0 87 54 135t151 48t150.5 -48t53.5 -135q0 -86 -53.5 -134t-150.5 -48t-151 48t-54 134z" />
<glyph unicode="@" horiz-adv-x="1908" d="M118 622q0 244 108 434t303 295t445 105q238 0 422.5 -93.5t285.5 -263t101 -389.5q0 -236 -107.5 -373t-294.5 -137q-97 0 -162.5 40t-85.5 111h-19q-62 -152 -234 -152q-156 0 -251 116t-95 306q0 182 91.5 294.5t239.5 112.5q81 0 142 -37t91 -105h19v118h230v-508 q0 -53 22.5 -83t63.5 -30q66 0 105 82t39 221q0 271 -164.5 432.5t-441.5 161.5q-288 0 -467.5 -184t-179.5 -479q0 -299 185 -473t503 -174q148 0 239 28v-178q-114 -30 -261 -30q-259 0 -457 103.5t-306.5 292.5t-108.5 436zM797 614q0 -98 38.5 -153t106.5 -55 q69 0 108.5 55.5t39.5 152.5t-40 152.5t-108 55.5t-106.5 -55t-38.5 -153z" />
<glyph unicode="A" horiz-adv-x="1563" d="M73 0l484 1443h449l485 -1443h-400l-90 317h-471l-93 -317h-364zM600 581h332l-155 537h-19z" />
<glyph unicode="B" horiz-adv-x="1459" d="M170 0v1443h673q215 0 336.5 -96t121.5 -264q0 -116 -77 -203.5t-192 -103.5v-19q142 -8 238.5 -105.5t96.5 -235.5q0 -190 -136.5 -303t-367.5 -113h-693zM537 259h222q114 0 174.5 48.5t60.5 140.5q0 89 -61.5 136.5t-175.5 47.5h-220v-373zM537 855h194 q100 0 156 43.5t56 120.5t-52.5 121t-145.5 44h-208v-329z" />
<glyph unicode="C" horiz-adv-x="1545" d="M102 722q0 353 186.5 556.5t511.5 203.5q179 0 325.5 -73.5t232.5 -204t91 -291.5h-353q-14 118 -96 190.5t-200 72.5q-151 0 -237.5 -121t-86.5 -332q0 -212 87 -334t238 -122q119 0 200 70.5t97 186.5h352q-9 -248 -191 -405.5t-459 -157.5q-324 0 -511 204t-187 557z " />
<glyph unicode="D" horiz-adv-x="1553" d="M170 0v1444h606q322 0 498.5 -185t176.5 -523q0 -355 -174.5 -545.5t-500.5 -190.5h-606zM537 295h173q179 0 273 110t94 324q0 201 -96.5 310.5t-270.5 109.5h-173v-854z" />
<glyph unicode="E" horiz-adv-x="1302" d="M170 0v1443h989v-295h-622v-288h585v-270h-585v-295h622v-295h-989z" />
<glyph unicode="F" horiz-adv-x="1251" d="M170 0v1443h982v-295h-615v-329h558v-281h-558v-538h-367z" />
<glyph unicode="G" horiz-adv-x="1572" d="M102 723q0 352 188 555.5t513 203.5q264 0 443.5 -140.5t206.5 -369.5h-362q-27 95 -103.5 149.5t-184.5 54.5q-154 0 -240.5 -119t-86.5 -330q0 -213 93.5 -336.5t251.5 -123.5q125 0 205 67t87 177l1 24h-264v252h618v-186q0 -298 -174.5 -469t-480.5 -171 q-333 0 -522 203t-189 559z" />
<glyph unicode="H" horiz-adv-x="1648" d="M170 0v1443h367v-566h575v566h366v-1443h-366v582h-575v-582h-367z" />
<glyph unicode="I" horiz-adv-x="707" d="M170 0v1443h367v-1443h-367z" />
<glyph unicode="J" horiz-adv-x="1299" d="M70 458h352q1 -85 48 -135.5t126 -50.5q81 0 123.5 50t42.5 146v975h367v-978q0 -241 -139.5 -372.5t-387.5 -131.5q-244 0 -388 133.5t-144 363.5z" />
<glyph unicode="K" horiz-adv-x="1507" d="M170 0v1443h367v-620h19l480 620h394l-499 -637l528 -806h-431l-364 569l-127 -161v-408h-367z" />
<glyph unicode="L" horiz-adv-x="1247" d="M170 0v1443h367v-1140h613v-303h-980z" />
<glyph unicode="M" horiz-adv-x="1924" d="M170 0v1443h433l350 -882h19l349 882h433v-1443h-339v911h-18l-321 -800h-227l-322 800h-18v-911h-339z" />
<glyph unicode="N" horiz-adv-x="1601" d="M170 0v1443h293l601 -812h19v812h348v-1443h-291l-603 820h-19v-820h-348z" />
<glyph unicode="O" horiz-adv-x="1626" d="M102 722q0 351 193 555.5t519 204.5t518 -204.5t192 -555.5q0 -352 -192 -556.5t-518 -204.5q-328 0 -520 204.5t-192 556.5zM476 722q0 -209 92 -333t246 -124q153 0 245 124t92 333q0 208 -92.5 332t-244.5 124q-153 0 -245.5 -124t-92.5 -332z" />
<glyph unicode="P" horiz-adv-x="1421" d="M170 0v1443h632q233 0 376.5 -140t143.5 -372q0 -229 -150 -368.5t-392 -139.5h-243v-423h-367zM537 700h166q118 0 183 59t65 171q0 113 -64 172t-182 59h-168v-461z" />
<glyph unicode="Q" horiz-adv-x="1626" d="M102 722q0 351 193 555.5t519 204.5t518 -204.5t192 -555.5q0 -185 -54.5 -331.5t-156.5 -243.5l177 -279h-341l-85 130q-117 -37 -250 -37q-328 0 -520 204t-192 557zM476 722q0 -209 92.5 -332.5t245.5 -123.5q40 0 78 9l-150 232h312l33 -44q64 98 64 259 q0 208 -92.5 331.5t-244.5 123.5q-153 0 -245.5 -123.5t-92.5 -331.5z" />
<glyph unicode="R" horiz-adv-x="1466" d="M170 0v1443h635q253 0 396 -126.5t143 -349.5q0 -136 -65 -246.5t-181 -161.5l288 -559h-412l-247 505h-190v-505h-367zM537 764h217q101 0 158 53t57 147q0 92 -59 147t-157 55h-216v-402z" />
<glyph unicode="S" horiz-adv-x="1423" d="M107 411h350q7 -79 79.5 -125.5t186.5 -46.5q103 0 167 45t64 116q0 60 -52 95.5t-176 60.5l-190 38q-198 37 -299 144t-101 277q0 212 156.5 339.5t417.5 127.5q253 0 413 -125t165 -325h-339q-6 76 -71.5 124.5t-162.5 48.5t-155.5 -42.5t-58.5 -114.5q0 -59 51 -96 t165 -59l186 -36q214 -41 313.5 -141t99.5 -272q0 -226 -162 -354.5t-446 -128.5q-274 0 -435.5 121t-165.5 329z" />
<glyph unicode="T" horiz-adv-x="1381" d="M91 1148v295h1199v-295h-417v-1148h-366v1148h-416z" />
<glyph unicode="U" horiz-adv-x="1585" d="M171 498v945h367v-906q0 -126 66.5 -196.5t188.5 -70.5t188 70t66 197v906h367v-945q0 -243 -170 -390t-451 -147t-451.5 147t-170.5 390z" />
<glyph unicode="V" horiz-adv-x="1528" d="M73 1443h421l277 -1062h19l269 1062h396l-453 -1443h-464z" />
<glyph unicode="W" horiz-adv-x="2112" d="M86 1443h381l192 -957h18l231 957h294l239 -957h18l189 957h378l-377 -1443h-344l-241 884h-18l-237 -884h-346z" />
<glyph unicode="X" horiz-adv-x="1549" d="M87 0l443 728l-442 715h428l259 -478h19l261 478h408l-461 -719l457 -724h-413l-274 457h-19l-276 -457h-390z" />
<glyph unicode="Y" horiz-adv-x="1507" d="M73 1443h391l281 -589h19l279 589h391l-497 -947v-496h-366v496z" />
<glyph unicode="Z" horiz-adv-x="1399" d="M130 0v233l677 896v19h-666v295h1106v-233l-677 -896v-19h698v-295h-1138z" />
<glyph unicode="[" horiz-adv-x="929" d="M243 -312v1842h617v-256h-277v-1329h277v-257h-617z" />
<glyph unicode="\" horiz-adv-x="852" d="M0 1530h341l511 -1842h-342z" />
<glyph unicode="]" horiz-adv-x="929" d="M69 -55h277v1329h-277v256h617v-1842h-617v257z" />
<glyph unicode="^" horiz-adv-x="1109" d="M76 769l331 635h295l332 -635h-307l-163 375h-19l-163 -375h-306z" />
<glyph unicode="_" horiz-adv-x="960" d="M2 -107h956v-266h-956v266z" />
<glyph unicode="`" horiz-adv-x="1101" d="M248 1647h356l245 -359h-309z" />
<glyph unicode="a" horiz-adv-x="1248" d="M81 320q0 152 114.5 238.5t330.5 99.5l243 14v87q0 57 -40.5 88.5t-113.5 31.5q-141 0 -176 -90h-318q12 162 150 256t364 94q230 0 356 -100t126 -280v-759h-344v138h-19q-37 -71 -122 -113t-191 -42q-161 0 -260.5 92.5t-99.5 244.5zM422 345q0 -53 40.5 -84t107.5 -31 q84 0 141.5 49t57.5 121v73l-187 -12q-78 -6 -119 -36t-41 -80z" />
<glyph unicode="b" horiz-adv-x="1374" d="M148 0v1530h353v-596h19q41 93 126.5 144.5t200.5 51.5q211 0 327.5 -150.5t116.5 -422.5q0 -271 -117.5 -422.5t-326.5 -151.5q-119 0 -207.5 50.5t-128.5 140.5h-19v-174h-344zM499 556q1 -137 58.5 -216t157.5 -79q99 0 156 79.5t57 216.5q0 136 -57.5 215.5 t-155.5 79.5q-99 0 -157 -79.5t-59 -216.5z" />
<glyph unicode="c" horiz-adv-x="1233" d="M83 558q0 284 144 432.5t419 148.5q228 0 361.5 -116t150.5 -322h-325q-11 79 -59 122.5t-128 43.5q-208 0 -208 -309q0 -312 208 -312q163 0 187 158h325q-16 -201 -151.5 -315.5t-360.5 -114.5q-275 0 -419 149.5t-144 434.5z" />
<glyph unicode="d" horiz-adv-x="1374" d="M83 559q0 266 119.5 418.5t327.5 152.5q112 0 197.5 -52t126.5 -144h19v596h354v-1530h-345v174h-19q-41 -90 -129 -140.5t-204 -50.5q-209 0 -328 153.5t-119 422.5zM446 557q0 -139 56.5 -217.5t157.5 -78.5t158 78.5t57 216.5t-57.5 217t-157.5 79t-157 -78.5 t-57 -216.5z" />
<glyph unicode="e" horiz-adv-x="1262" d="M83 549q0 275 147.5 432.5t406.5 157.5q257 0 400 -148.5t143 -414.5v-98h-749v-18q2 -109 61 -172t160 -63q77 0 128.5 27t69.5 76h323q-29 -163 -172 -258.5t-359 -95.5q-266 0 -412.5 150.5t-146.5 424.5zM433 681h404q-4 97 -56.5 152t-141.5 55q-87 0 -143 -56.5 t-63 -150.5z" />
<glyph unicode="f" horiz-adv-x="885" d="M51 835v263h178v108q0 170 96.5 252.5t315.5 82.5q97 0 168 -11v-233q-34 6 -90 6q-79 0 -112.5 -30t-33.5 -95v-80h227v-263h-218v-835h-353v835h-178z" />
<glyph unicode="g" horiz-adv-x="1360" d="M79 563q0 263 120.5 415t330.5 152q111 0 199 -52.5t130 -143.5h19v179h345v-1100q0 -199 -156 -315.5t-422 -116.5q-232 0 -377 91.5t-156 241.5h344q10 -45 63 -71.5t136 -26.5q102 0 158 45.5t56 128.5v201h-19q-87 -175 -328 -175q-204 0 -323.5 147.5t-119.5 399.5z M442 564q0 -134 56 -211t157 -77q102 0 159 76.5t57 210.5q0 135 -57.5 212t-158.5 77q-100 0 -156.5 -77t-56.5 -211z" />
<glyph unicode="h" horiz-adv-x="1355" d="M148 0v1530h346v-602h19q37 96 125 151t208 55q182 0 281.5 -108.5t99.5 -310.5v-715h-353v635q0 103 -46 157t-134 54q-90 0 -141.5 -59t-51.5 -156v-631h-353z" />
<glyph unicode="i" horiz-adv-x="631" d="M116 1399q0 72 53.5 115t145.5 43q93 0 146.5 -43t53.5 -115q0 -71 -53.5 -114t-146.5 -43q-92 0 -145.5 43t-53.5 114zM138 0v1113h354v-1113h-354z" />
<glyph unicode="j" horiz-adv-x="631" d="M-33 -120q18 -2 42 -2q69 0 99 25.5t30 82.5v1127h354v-1140q0 -170 -109 -260.5t-313 -90.5q-55 0 -103 5v253zM116 1399q0 72 53.5 115t145.5 43q93 0 146.5 -43t53.5 -115q0 -71 -53.5 -114t-146.5 -43q-92 0 -145.5 43t-53.5 114z" />
<glyph unicode="k" horiz-adv-x="1295" d="M148 0v1530h353v-833h19l316 416h396l-397 -478l424 -635h-412l-278 426l-68 -77v-349h-353z" />
<glyph unicode="l" horiz-adv-x="649" d="M148 0v1530h353v-1530h-353z" />
<glyph unicode="m" horiz-adv-x="1960" d="M138 0v1113h344v-184h19q32 97 115 153.5t192 56.5q119 0 198 -54.5t111 -155.5h19q35 95 125.5 152.5t207.5 57.5q164 0 263.5 -103.5t99.5 -274.5v-761h-353v671q0 179 -161 179q-75 0 -119.5 -50t-44.5 -132v-668h-338v677q0 84 -41 128.5t-118 44.5q-74 0 -120 -52 t-46 -136v-662h-353z" />
<glyph unicode="n" horiz-adv-x="1332" d="M138 0v1113h344v-181h19q37 96 122 151.5t204 55.5q184 0 280.5 -109t96.5 -311v-719h-354v640q0 210 -175 210q-85 0 -134.5 -58.5t-49.5 -155.5v-636h-353z" />
<glyph unicode="o" horiz-adv-x="1300" d="M83 557q0 270 152 426t415 156q264 0 415.5 -155.5t151.5 -426.5q0 -275 -149.5 -429t-417.5 -154q-267 0 -417 154t-150 429zM446 557q0 -149 53.5 -231t150.5 -82t150.5 82t53.5 231q0 146 -54 229t-150 83t-150 -83t-54 -229z" />
<glyph unicode="p" horiz-adv-x="1364" d="M138 -368v1481h344v-181h19q41 93 129 145.5t203 52.5q211 0 329.5 -150.5t118.5 -422.5t-116 -423t-324 -151q-120 0 -206 49.5t-125 138.5h-19v-539h-353zM489 556q0 -139 57 -217t158 -78t157.5 78.5t56.5 217.5q0 138 -57 216.5t-157 78.5t-157.5 -79t-57.5 -217z " />
<glyph unicode="q" horiz-adv-x="1364" d="M83 559q0 266 120.5 418.5t330.5 152.5q112 0 199.5 -53.5t129.5 -144.5h19v181h345v-1481h-355v539h-19q-41 -89 -126 -138.5t-202 -49.5q-208 0 -325 153.5t-117 422.5zM446 557q0 -139 56.5 -217.5t156.5 -78.5q101 0 158.5 78.5t57.5 216.5q0 137 -58 216.5 t-158 79.5t-156.5 -79t-56.5 -216z" />
<glyph unicode="r" horiz-adv-x="950" d="M138 0v1113h344v-183h19q21 86 96.5 143t177.5 57q88 0 128 -17v-301q-49 20 -152 20q-119 0 -189.5 -64t-70.5 -179v-589h-353z" />
<glyph unicode="s" horiz-adv-x="1206" d="M86 319h341q28 -106 185 -106q73 0 116.5 27t43.5 72q0 35 -27.5 56t-94.5 35l-207 44q-330 70 -330 331q0 166 132 263.5t357 97.5q231 0 355.5 -87.5t134.5 -255.5h-322q-8 49 -51 76.5t-114 27.5q-69 0 -112.5 -27.5t-43.5 -72.5q0 -35 30.5 -57.5t97.5 -36.5l230 -47 q165 -35 239.5 -107.5t74.5 -198.5q0 -173 -140 -276t-374 -103q-239 0 -372.5 88.5t-148.5 256.5z" />
<glyph unicode="t" horiz-adv-x="898" d="M55 835v263h171v270h353v-270h224v-263h-224v-451q0 -125 135 -125q46 0 89 5v-252q-65 -14 -169 -14q-219 0 -313.5 71.5t-94.5 235.5v530h-171z" />
<glyph unicode="u" horiz-adv-x="1340" d="M128 386v727h353v-640q0 -101 47.5 -154.5t133.5 -53.5q89 0 137.5 56.5t48.5 155.5v636h354v-1113h-344v180h-19q-82 -206 -316 -206q-179 0 -287 110.5t-108 301.5z" />
<glyph unicode="v" horiz-adv-x="1238" d="M42 1113h381l193 -796h19l189 796h372l-371 -1113h-408z" />
<glyph unicode="w" horiz-adv-x="1814" d="M57 1113h358l139 -763h19l168 763h337l170 -763h19l139 763h350l-288 -1113h-381l-174 733h-19l-172 -733h-375z" />
<glyph unicode="x" horiz-adv-x="1250" d="M58 1113h403l163 -347h19l165 347h383l-337 -551l338 -562h-387l-179 341h-19l-178 -341h-369l333 547z" />
<glyph unicode="y" horiz-adv-x="1282" d="M50 1113h391l199 -816h19l199 816h374l-358 -1111q-71 -222 -203.5 -314.5t-372.5 -92.5q-124 0 -129 1v269q10 -2 62 -2q176 0 194 97l5 31z" />
<glyph unicode="z" horiz-adv-x="1190" d="M112 0v189l524 639v19h-512v266h936v-217l-477 -611v-19h495v-266h-966z" />
<glyph unicode="{" horiz-adv-x="929" d="M69 451v324q131 2 188 48t57 151v168q0 207 107.5 297.5t354.5 90.5h84v-250h-46q-89 0 -125 -40t-36 -138v-214q0 -109 -74 -175.5t-211 -81.5v-36q137 -15 211 -81.5t74 -175.5v-222q0 -98 36 -138t125 -40h46v-250h-84q-246 0 -354 93t-108 303v168q0 105 -57 151 t-188 48z" />
<glyph unicode="|" horiz-adv-x="852" d="M256 -312v1842h340v-1842h-340z" />
<glyph unicode="}" horiz-adv-x="929" d="M69 -62h46q89 0 125 40t36 138v222q0 109 74 175.5t211 81.5v36q-137 15 -211 81.5t-74 175.5v214q0 98 -36 138t-125 40h-46v250h84q247 0 354.5 -90.5t107.5 -297.5v-168q0 -105 57 -151.5t188 -47.5v-324q-132 -2 -188.5 -48t-56.5 -151v-168q0 -210 -108 -303 t-354 -93h-84v250z" />
<glyph unicode="~" horiz-adv-x="1236" d="M74 512q0 233 78.5 349.5t250.5 116.5q70 0 130 -29.5t137 -103.5q72 -71 122 -71q104 0 107 178h264q0 -242 -77 -354t-249 -112q-72 0 -132.5 29.5t-134.5 101.5q-41 41 -68 57t-57 16q-106 0 -107 -178h-264z" />
<glyph unicode="&#xa1;" horiz-adv-x="778" d="M185 983q0 86 53.5 133.5t150.5 47.5t151 -48t54 -133q0 -87 -54 -135t-151 -48t-150.5 48t-53.5 135zM197 -314l32 970h320l32 -970h-384z" />
<glyph unicode="&#xa2;" d="M156 691q0 223 120.5 372.5t322.5 191.5v196h279v-191q177 -32 291.5 -146t128.5 -281h-324q-17 74 -76.5 120t-139.5 46q-108 0 -177.5 -82.5t-69.5 -225.5q0 -146 69.5 -229t176.5 -83q86 0 143.5 42t73.5 115h324q-14 -168 -127.5 -278t-292.5 -141v-189h-279v195 q-203 42 -323 191.5t-120 376.5z" />
<glyph unicode="&#xa3;" d="M148 0v274q135 15 217 101t82 213q0 12 -2 36h-291v240h218q-57 141 -57 234q0 183 151.5 283.5t427.5 100.5q92 0 192.5 -14.5t153.5 -35.5v-276q-54 22 -135.5 36t-156.5 14q-129 0 -198.5 -46.5t-69.5 -130.5q0 -65 37 -165h385v-240h-315v-11q0 -95 -44 -178 t-115 -117v-20h676v-298h-1156z" />
<glyph unicode="&#xa4;" d="M166 278l140 140q-57 108 -57 227t57 227l-140 140l197 198l140 -140q108 57 228 57q119 0 227 -57l140 140l197 -198l-139 -139q57 -108 57 -228t-57 -228l139 -139l-197 -198l-140 140q-108 -57 -227 -57q-120 0 -228 57l-140 -140zM512 645q0 -89 65 -154.5t154 -65.5 t154 65.5t65 154.5t-65 155t-154 66t-154 -66t-65 -155z" />
<glyph unicode="&#xa5;" d="M50 1443h391l281 -589h19l279 589h391l-410 -777h181v-182h-268v-120h268v-182h-268v-182h-367v182h-268v182h268v120h-268v182h181z" />
<glyph unicode="&#xa6;" horiz-adv-x="852" d="M256 -312v735h340v-735h-340zM256 796v734h340v-734h-340z" />
<glyph unicode="&#xa7;" horiz-adv-x="1032" d="M49 538q0 93 56.5 165t154.5 104v19q-106 53 -152 117t-46 158q0 157 124.5 251.5t332.5 94.5q194 0 317 -94.5t131 -250.5h-293q-6 49 -49.5 79.5t-105.5 30.5q-64 0 -103.5 -31.5t-39.5 -82.5q0 -37 27.5 -61.5t94.5 -48.5l186 -69q159 -58 229.5 -129.5t70.5 -175.5 q0 -95 -60 -169.5t-160 -104.5v-19q110 -50 158.5 -113.5t48.5 -157.5q0 -157 -125.5 -252t-333.5 -95q-195 0 -319.5 96t-130.5 251h293q6 -49 50.5 -80.5t107.5 -31.5q65 0 105 31.5t40 82.5q0 37 -29 62.5t-94 47.5l-194 68q-155 55 -223.5 127t-68.5 181zM343 603 q0 -40 34 -74t93 -54l123 -46q42 12 70 46t28 72q0 41 -33.5 74.5t-93.5 52.5l-122 47q-42 -13 -70.5 -47t-28.5 -71z" />
<glyph unicode="&#xa8;" horiz-adv-x="1220" d="M186 1432q0 72 48.5 118t124.5 46t124.5 -46t48.5 -118t-48.5 -118t-124.5 -46t-124.5 46t-48.5 118zM688 1432q0 72 48.5 118t124.5 46t125 -46t49 -118t-49 -118t-125 -46t-124.5 46t-48.5 118z" />
<glyph unicode="&#xa9;" horiz-adv-x="1742" d="M85 663q0 160 62 305.5t167.5 251t251 167.5t305.5 62t305.5 -62t251 -167.5t167.5 -251t62 -305.5q0 -161 -62 -306.5t-167.5 -251t-251 -167.5t-305.5 -62t-305.5 62t-251 167.5t-167.5 251t-62 306.5zM261 663q0 -167 81.5 -307.5t222 -222t306.5 -81.5q125 0 238 48 t194.5 130t129.5 195t48 238t-48 238t-129.5 194.5t-194.5 129.5t-238 48t-238 -48t-194.5 -129.5t-129.5 -194.5t-48 -238zM511 664q0 178 100.5 281.5t272.5 103.5q147 0 241.5 -79.5t106.5 -213.5h-214q-8 53 -43 83.5t-87 30.5q-68 0 -106.5 -54.5t-38.5 -151.5 q0 -100 38 -154t107 -54q54 0 88 28t42 79h214q-12 -133 -104.5 -209.5t-241.5 -76.5q-175 0 -275 103.5t-100 283.5z" />
<glyph unicode="&#xaa;" horiz-adv-x="1078" d="M91 779q0 128 95.5 200.5t281.5 83.5l187 10v73q1 41 -30 64.5t-85 23.5q-104 0 -118 -71h-298q9 142 122.5 222.5t305.5 80.5q194 0 306.5 -87t112.5 -238v-635h-310v110h-19q-28 -58 -95 -92t-154 -34q-138 0 -220 78t-82 211zM403 799q0 -42 30.5 -66t84.5 -24 q61 0 99.5 36.5t38.5 93.5v61l-135 -10q-118 -9 -118 -91z" />
<glyph unicode="&#xab;" horiz-adv-x="1476" d="M146 562v8l349 409h306l-345 -408v-8l345 -410h-313zM675 562v8l348 409h307l-345 -408v-8l345 -410h-314z" />
<glyph unicode="&#xac;" d="M182 436v301h1097v-703h-312v402h-785z" />
<glyph unicode="&#xad;" horiz-adv-x="1006" d="M174 425v316h658v-316h-658z" />
<glyph unicode="&#xae;" horiz-adv-x="1260" d="M96 968q0 145 71.5 268t194.5 194.5t268 71.5t268 -71.5t194.5 -194.5t71.5 -268t-71.5 -268t-194.5 -194.5t-268 -71.5t-268 71.5t-194.5 194.5t-71.5 268zM244 968q0 -160 113 -273t273 -113t273 113t113 273t-113 273t-273 113t-273 -113t-113 -273zM416 733v482h260 q83 0 133.5 -43.5t50.5 -113.5q0 -53 -26.5 -92.5t-70.5 -54.5l121 -178h-164l-102 158h-63v-158h-139zM555 992h86q71 0 71 56q0 58 -69 58h-88v-114z" />
<glyph unicode="&#xaf;" horiz-adv-x="1048" d="M140 1327v198h768v-198h-768z" />
<glyph unicode="&#xb0;" horiz-adv-x="935" d="M89 1088q0 158 108.5 265.5t270.5 107.5q161 0 270 -107.5t109 -265.5t-109 -266t-270 -108q-162 0 -270.5 107.5t-108.5 266.5zM293 1088q0 -77 49 -127.5t126 -50.5t125.5 50t48.5 128t-48 127.5t-126 49.5q-77 0 -126 -50t-49 -127z" />
<glyph unicode="&#xb1;" d="M236 55v255h986v-255h-986zM236 645v258h343v213h303v-213h343v-258h-343v-212h-303v212h-343z" />
<glyph unicode="&#xb2;" horiz-adv-x="960" d="M72 1520v6q0 152 109.5 242.5t294.5 90.5q178 0 281.5 -78.5t103.5 -213.5q0 -96 -61 -178.5t-197 -169.5l-78 -63v-19h352v-243h-780v219l264 212q114 88 151 129.5t37 81.5q0 37 -24.5 60t-64.5 23q-43 0 -69 -25.5t-26 -66.5v-7h-293z" />
<glyph unicode="&#xb3;" horiz-adv-x="1001" d="M82 1204h293q2 -42 33 -67.5t82 -25.5q48 0 77.5 22.5t29.5 59.5t-27 57t-77 20h-116v198h115q45 0 69.5 20t24.5 56q0 33 -27.5 54t-70.5 21q-49 0 -78.5 -24.5t-31.5 -66.5h-291q-2 149 108.5 238.5t297.5 89.5q178 0 284 -72t106 -191q0 -80 -50 -136.5t-132 -68.5 v-19q99 -10 157 -67.5t58 -146.5q0 -130 -116 -209t-307 -79q-190 0 -301.5 91.5t-109.5 245.5z" />
<glyph unicode="&#xb4;" horiz-adv-x="1101" d="M246 1288l245 359h356l-292 -359h-309z" />
<glyph unicode="&#xb5;" horiz-adv-x="1421" d="M138 -368v1481h353v-641q0 -100 44.5 -153.5t133.5 -53.5q78 0 128.5 58.5t50.5 151.5v638h354v-741q0 -68 18.5 -94.5t64.5 -26.5q27 0 57 9v-250q-77 -21 -155 -21q-120 0 -188.5 46t-97.5 149l-4 15h-20q-10 -107 -67 -166t-157 -59t-143 58h-19v-400h-353z" />
<glyph unicode="&#xb6;" horiz-adv-x="1717" d="M132 915q0 150 68.5 270t195 189t288.5 69h352v-1716h-333v665h-20q-156 0 -283 70t-197.5 189.5t-70.5 263.5zM1216 -273v1716h332v-1716h-332z" />
<glyph unicode="&#xb7;" horiz-adv-x="772" d="M180 731q0 87 55.5 140.5t150.5 53.5q96 0 151 -53.5t55 -140.5t-55.5 -140.5t-150.5 -53.5t-150.5 53.5t-55.5 140.5z" />
<glyph unicode="&#xb8;" horiz-adv-x="1101" d="M370 -330q40 -14 113 -14q108 0 108 53q0 28 -28.5 40.5t-91.5 12.5h-61v128l61 139h182v-29l-42 -99q91 -7 138.5 -53.5t47.5 -128.5q0 -101 -72.5 -156t-206.5 -55q-92 0 -148 18v144z" />
<glyph unicode="&#xb9;" horiz-adv-x="812" d="M87 1414v268q103 72 230 149h330v-937h-325v655h-19q-5 -3 -110 -68.5t-106 -66.5z" />
<glyph unicode="&#xba;" horiz-adv-x="1151" d="M98 976q0 225 127.5 355t348.5 130q223 0 350 -129.5t127 -355.5q0 -231 -125.5 -358.5t-351.5 -127.5q-225 0 -350.5 128t-125.5 358zM422 976q0 -118 39.5 -182t112.5 -64t112.5 64t39.5 182q0 116 -40 181t-112 65q-71 0 -111.5 -65.5t-40.5 -180.5z" />
<glyph unicode="&#xbb;" horiz-adv-x="1476" d="M146 153l345 410v8l-345 408h307l348 -409v-8l-341 -409h-314zM675 153l345 410v8l-345 408h306l349 -409v-8l-342 -409h-313z" />
<glyph unicode="&#xbc;" horiz-adv-x="2399" d="M87 1026v268q103 72 230 149h330v-937h-325v655h-19q-5 -3 -110 -68.5t-106 -66.5zM603 0l424 746l308 697h329l-441 -750l-290 -693h-330zM1414 120v242q48 105 123 229t226 346h440v-582h104v-222h-118v-133h-279v120h-496zM1683 347h227v361h-18q-168 -268 -209 -359 v-2z" />
<glyph unicode="&#xbd;" horiz-adv-x="2398" d="M87 1026v268q103 72 230 149h330v-937h-325v655h-19q-5 -3 -110 -68.5t-106 -66.5zM603 0l424 746l308 697h329l-441 -750l-290 -693h-330zM1510 626v6q0 152 109.5 242.5t294.5 90.5q178 0 281.5 -78.5t103.5 -213.5q0 -96 -61 -178.5t-197 -169.5l-78 -63v-19h352v-243 h-780v219l264 212q114 88 151 129.5t37 81.5q0 37 -24.5 60t-64.5 23q-43 0 -69 -25.5t-26 -66.5v-7h-293z" />
<glyph unicode="&#xbe;" horiz-adv-x="2543" d="M82 816h293q2 -42 33 -67.5t82 -25.5q48 0 77.5 22.5t29.5 59.5t-27 57t-77 20h-116v198h115q45 0 69.5 20t24.5 56q0 33 -27.5 54t-70.5 21q-49 0 -78.5 -24.5t-31.5 -66.5h-291q-2 149 108.5 238.5t297.5 89.5q178 0 284 -72t106 -191q0 -80 -50 -136.5t-132 -68.5v-19 q99 -10 157 -67.5t58 -146.5q0 -130 -116 -209t-307 -79q-190 0 -301.5 91.5t-109.5 245.5zM748 0l424 746l308 697h329l-441 -750l-290 -693h-330zM1558 120v242q48 105 123 229t226 346h440v-582h104v-222h-118v-133h-279v120h-496zM1827 347h227v361h-18 q-168 -268 -209 -359v-2z" />
<glyph unicode="&#xbf;" horiz-adv-x="1189" d="M99 73q0 110 52.5 190.5t163.5 144.5q103 60 138.5 104t35.5 114v47h312l2 -39q15 -127 -24 -204t-145 -138q-102 -60 -136.5 -102t-34.5 -108q0 -61 45 -98.5t117 -37.5q71 0 116 44t47 117h326q-2 -199 -139 -316.5t-374 -117.5q-227 0 -364.5 110t-137.5 290zM432 982 q0 86 54 134t150 48q97 0 151 -48t54 -134t-54 -134t-151 -48q-96 0 -150 48t-54 134z" />
<glyph unicode="&#xc0;" horiz-adv-x="1563" d="M73 0l484 1443h449l485 -1443h-400l-90 317h-471l-93 -317h-364zM339 1922h362l258 -326h-314zM600 581h332l-155 537h-19z" />
<glyph unicode="&#xc1;" horiz-adv-x="1563" d="M73 0l484 1443h449l485 -1443h-400l-90 317h-471l-93 -317h-364zM600 581h332l-155 537h-19zM623 1596l258 326h362l-304 -326h-316z" />
<glyph unicode="&#xc2;" horiz-adv-x="1563" d="M73 0l484 1443h449l485 -1443h-400l-90 317h-471l-93 -317h-364zM342 1596l275 350h330l275 -350h-298l-132 190h-20l-132 -190h-298zM600 581h332l-155 537h-19z" />
<glyph unicode="&#xc3;" horiz-adv-x="1563" d="M73 0l484 1443h449l485 -1443h-400l-90 317h-471l-93 -317h-364zM361 1572q0 149 76.5 241t200.5 92q40 0 76.5 -14.5t61.5 -35t47.5 -40.5t45 -34.5t43.5 -14.5q38 0 60 34t23 97h210q0 -147 -76 -238t-200 -91q-49 0 -93.5 22t-70 48t-55.5 48t-55 22q-38 0 -60 -36 t-24 -100h-210zM600 581h332l-155 537h-19z" />
<glyph unicode="&#xc4;" horiz-adv-x="1563" d="M73 0l484 1443h449l485 -1443h-400l-90 317h-471l-93 -317h-364zM358 1745q0 72 48.5 118t124.5 46t124.5 -46t48.5 -118t-48.5 -118t-124.5 -46t-124.5 46t-48.5 118zM600 581h332l-155 537h-19zM860 1745q0 72 48.5 118t124.5 46t125 -46t49 -118t-49 -118t-125 -46 t-124.5 46t-48.5 118z" />
<glyph unicode="&#xc5;" horiz-adv-x="1563" d="M73 0l484 1443h449l485 -1443h-400l-90 317h-471l-93 -317h-364zM574 1746q0 87 59 143t150 56q90 0 148.5 -56t58.5 -143q0 -88 -58.5 -145.5t-148.5 -57.5q-91 0 -150 57.5t-59 145.5zM600 581h332l-155 537h-19zM692 1744q0 -38 26 -63.5t64 -25.5q39 0 64.5 25.5 t25.5 63.5t-26 63.5t-64 25.5t-64 -25.5t-26 -63.5z" />
<glyph unicode="&#xc6;" horiz-adv-x="2108" d="M73 0l566 1443h1326v-295h-646v-290h609v-270h-609v-293h646v-295h-973v327h-432l-125 -327h-362zM655 592h337v575h-120z" />
<glyph unicode="&#xc7;" horiz-adv-x="1545" d="M102 722q0 353 186.5 556.5t511.5 203.5q179 0 325.5 -73.5t232.5 -204t91 -291.5h-353q-14 118 -96 190.5t-200 72.5q-151 0 -237.5 -121t-86.5 -332q0 -212 87 -334t238 -122q119 0 200 70.5t97 186.5h352q-8 -226 -162.5 -379t-396.5 -179l-27 -64q91 -7 138.5 -53.5 t47.5 -128.5q0 -101 -72.5 -156t-206.5 -55q-92 0 -148 18v144q40 -14 113 -14q108 0 108 53q0 28 -28.5 40.5t-91.5 12.5h-61v128l33 76q-278 32 -436 232t-158 523z" />
<glyph unicode="&#xc8;" horiz-adv-x="1302" d="M170 0v1443h989v-295h-622v-288h585v-270h-585v-295h622v-295h-989zM222 1922h362l258 -326h-314z" />
<glyph unicode="&#xc9;" horiz-adv-x="1302" d="M170 0v1443h989v-295h-622v-288h585v-270h-585v-295h622v-295h-989zM506 1596l258 326h362l-304 -326h-316z" />
<glyph unicode="&#xca;" horiz-adv-x="1302" d="M170 0v1443h989v-295h-622v-288h585v-270h-585v-295h622v-295h-989zM225 1596l275 350h330l275 -350h-298l-132 190h-20l-132 -190h-298z" />
<glyph unicode="&#xcb;" horiz-adv-x="1302" d="M170 0v1443h989v-295h-622v-288h585v-270h-585v-295h622v-295h-989zM241 1745q0 72 48.5 118t124.5 46t124.5 -46t48.5 -118t-48.5 -118t-124.5 -46t-124.5 46t-48.5 118zM743 1745q0 72 48.5 118t124.5 46t125 -46t49 -118t-49 -118t-125 -46t-124.5 46t-48.5 118z" />
<glyph unicode="&#xcc;" horiz-adv-x="707" d="M-90 1922h362l258 -326h-314zM170 0v1443h367v-1443h-367z" />
<glyph unicode="&#xcd;" horiz-adv-x="707" d="M170 0v1443h367v-1443h-367zM194 1596l258 326h362l-304 -326h-316z" />
<glyph unicode="&#xce;" horiz-adv-x="707" d="M-87 1596l275 350h330l275 -350h-298l-132 190h-20l-132 -190h-298zM170 0v1443h367v-1443h-367z" />
<glyph unicode="&#xcf;" horiz-adv-x="707" d="M-71 1745q0 72 48.5 118t124.5 46t124.5 -46t48.5 -118t-48.5 -118t-124.5 -46t-124.5 46t-48.5 118zM170 0v1443h367v-1443h-367zM431 1745q0 72 48.5 118t124.5 46t125 -46t49 -118t-49 -118t-125 -46t-124.5 46t-48.5 118z" />
<glyph unicode="&#xd0;" horiz-adv-x="1553" d="M63 600v252h107v592h606q322 0 498.5 -185t176.5 -523q0 -355 -174.5 -545.5t-500.5 -190.5h-606v600h-107zM537 295h173q179 0 273 110t94 324q0 201 -96.5 310.5t-270.5 109.5h-173v-297h216v-252h-216v-305z" />
<glyph unicode="&#xd1;" horiz-adv-x="1601" d="M170 0v1443h293l601 -812h19v812h348v-1443h-291l-603 820h-19v-820h-348zM373 1572q0 149 76.5 241t200.5 92q40 0 76.5 -14.5t61.5 -35t47.5 -40.5t45 -34.5t43.5 -14.5q38 0 60 34t23 97h210q0 -147 -76 -238t-200 -91q-49 0 -93.5 22t-70 48t-55.5 48t-55 22 q-38 0 -60 -36t-24 -100h-210z" />
<glyph unicode="&#xd2;" horiz-adv-x="1626" d="M102 722q0 351 193 555.5t519 204.5t518 -204.5t192 -555.5q0 -352 -192 -556.5t-518 -204.5q-328 0 -520 204.5t-192 556.5zM371 1922h362l258 -326h-314zM476 722q0 -209 92 -333t246 -124q153 0 245 124t92 333q0 208 -92.5 332t-244.5 124q-153 0 -245.5 -124 t-92.5 -332z" />
<glyph unicode="&#xd3;" horiz-adv-x="1626" d="M102 722q0 351 193 555.5t519 204.5t518 -204.5t192 -555.5q0 -352 -192 -556.5t-518 -204.5q-328 0 -520 204.5t-192 556.5zM476 722q0 -209 92 -333t246 -124q153 0 245 124t92 333q0 208 -92.5 332t-244.5 124q-153 0 -245.5 -124t-92.5 -332zM655 1596l258 326h362 l-304 -326h-316z" />
<glyph unicode="&#xd4;" horiz-adv-x="1626" d="M102 722q0 351 193 555.5t519 204.5t518 -204.5t192 -555.5q0 -352 -192 -556.5t-518 -204.5q-328 0 -520 204.5t-192 556.5zM374 1596l275 350h330l275 -350h-298l-132 190h-20l-132 -190h-298zM476 722q0 -209 92 -333t246 -124q153 0 245 124t92 333q0 208 -92.5 332 t-244.5 124q-153 0 -245.5 -124t-92.5 -332z" />
<glyph unicode="&#xd5;" horiz-adv-x="1626" d="M102 722q0 351 193 555.5t519 204.5t518 -204.5t192 -555.5q0 -352 -192 -556.5t-518 -204.5q-328 0 -520 204.5t-192 556.5zM393 1572q0 149 76.5 241t200.5 92q40 0 76.5 -14.5t61.5 -35t47.5 -40.5t45 -34.5t43.5 -14.5q38 0 60 34t23 97h210q0 -147 -76 -238 t-200 -91q-49 0 -93.5 22t-70 48t-55.5 48t-55 22q-38 0 -60 -36t-24 -100h-210zM476 722q0 -209 92 -333t246 -124q153 0 245 124t92 333q0 208 -92.5 332t-244.5 124q-153 0 -245.5 -124t-92.5 -332z" />
<glyph unicode="&#xd6;" horiz-adv-x="1626" d="M102 722q0 351 193 555.5t519 204.5t518 -204.5t192 -555.5q0 -352 -192 -556.5t-518 -204.5q-328 0 -520 204.5t-192 556.5zM390 1745q0 72 48.5 118t124.5 46t124.5 -46t48.5 -118t-48.5 -118t-124.5 -46t-124.5 46t-48.5 118zM476 722q0 -209 92 -333t246 -124 q153 0 245 124t92 333q0 208 -92.5 332t-244.5 124q-153 0 -245.5 -124t-92.5 -332zM892 1745q0 72 48.5 118t124.5 46t125 -46t49 -118t-49 -118t-125 -46t-124.5 46t-48.5 118z" />
<glyph unicode="&#xd7;" d="M215 283l303 303l-303 303l213 212l302 -302l303 302l213 -212l-303 -303l303 -303l-213 -212l-303 302l-302 -302z" />
<glyph unicode="&#xd8;" horiz-adv-x="1614" d="M102 722q0 351 193 555.5t519 204.5q192 0 340 -73l65 106l113 -56l-71 -116q127 -99 195 -257.5t68 -363.5q0 -352 -192 -556.5t-518 -204.5q-201 0 -353 79l-72 -117l-103 62l73 120q-124 99 -190.5 256.5t-66.5 360.5zM476 722q0 -185 73 -305l434 711q-75 50 -169 50 q-153 0 -245.5 -124t-92.5 -332zM634 322q77 -57 180 -57q153 0 245 124t92 333q0 190 -79 313z" />
<glyph unicode="&#xd9;" horiz-adv-x="1586" d="M171 498v945h367v-906q0 -126 66.5 -196.5t188.5 -70.5t188 70t66 197v906h367v-945q0 -243 -170 -390t-451 -147t-451.5 147t-170.5 390zM350 1922h362l258 -326h-314z" />
<glyph unicode="&#xda;" horiz-adv-x="1586" d="M171 498v945h367v-906q0 -126 66.5 -196.5t188.5 -70.5t188 70t66 197v906h367v-945q0 -243 -170 -390t-451 -147t-451.5 147t-170.5 390zM634 1596l258 326h362l-304 -326h-316z" />
<glyph unicode="&#xdb;" horiz-adv-x="1586" d="M171 498v945h367v-906q0 -126 66.5 -196.5t188.5 -70.5t188 70t66 197v906h367v-945q0 -243 -170 -390t-451 -147t-451.5 147t-170.5 390zM353 1596l275 350h330l275 -350h-298l-132 190h-20l-132 -190h-298z" />
<glyph unicode="&#xdc;" horiz-adv-x="1586" d="M171 498v945h367v-906q0 -126 66.5 -196.5t188.5 -70.5t188 70t66 197v906h367v-945q0 -243 -170 -390t-451 -147t-451.5 147t-170.5 390zM369 1745q0 72 48.5 118t124.5 46t124.5 -46t48.5 -118t-48.5 -118t-124.5 -46t-124.5 46t-48.5 118zM871 1745q0 72 48.5 118 t124.5 46t125 -46t49 -118t-49 -118t-125 -46t-124.5 46t-48.5 118z" />
<glyph unicode="&#xdd;" horiz-adv-x="1508" d="M73 1443h391l281 -589h19l279 589h391l-497 -947v-496h-366v496zM596 1596l258 326h362l-304 -326h-316z" />
<glyph unicode="&#xde;" horiz-adv-x="1430" d="M170 0v1443h369v-219h273q227 0 364.5 -129.5t137.5 -350.5q0 -219 -144 -348.5t-381 -129.5h-252v-266h-367zM537 544h174q111 0 171.5 51t60.5 149q0 96 -60 147t-169 51h-177v-398z" />
<glyph unicode="&#xdf;" horiz-adv-x="1469" d="M174 0v1070q0 188 146 296.5t397 108.5q238 0 386.5 -105t148.5 -273q0 -118 -58.5 -204.5t-153.5 -112.5v-19q149 -8 242 -107t93 -255q0 -190 -134.5 -302.5t-366.5 -112.5q-123 0 -200 17v276q53 -19 127 -19q102 0 157 44t55 122t-64 122.5t-176 44.5h-77v274h48 q75 0 120.5 44.5t45.5 119.5q0 76 -50.5 121.5t-136.5 45.5q-96 0 -146 -52t-50 -153v-991h-353z" />
<glyph unicode="&#xe0;" horiz-adv-x="1248" d="M81 320q0 152 114.5 238.5t330.5 99.5l243 14v87q0 57 -40.5 88.5t-113.5 31.5q-141 0 -176 -90h-318q12 162 150 256t364 94q230 0 356 -100t126 -280v-759h-344v138h-19q-37 -71 -122 -113t-191 -42q-161 0 -260.5 92.5t-99.5 244.5zM213 1647h356l245 -359h-309z M422 345q0 -53 40.5 -84t107.5 -31q84 0 141.5 49t57.5 121v73l-187 -12q-78 -6 -119 -36t-41 -80z" />
<glyph unicode="&#xe1;" horiz-adv-x="1248" d="M81 320q0 152 114.5 238.5t330.5 99.5l243 14v87q0 57 -40.5 88.5t-113.5 31.5q-141 0 -176 -90h-318q12 162 150 256t364 94q230 0 356 -100t126 -280v-759h-344v138h-19q-37 -71 -122 -113t-191 -42q-161 0 -260.5 92.5t-99.5 244.5zM422 345q0 -53 40.5 -84t107.5 -31 q84 0 141.5 49t57.5 121v73l-187 -12q-78 -6 -119 -36t-41 -80zM460 1288l245 359h356l-292 -359h-309z" />
<glyph unicode="&#xe2;" horiz-adv-x="1248" d="M81 320q0 152 114.5 238.5t330.5 99.5l243 14v87q0 57 -40.5 88.5t-113.5 31.5q-141 0 -176 -90h-318q12 162 150 256t364 94q230 0 356 -100t126 -280v-759h-344v138h-19q-37 -71 -122 -113t-191 -42q-161 0 -260.5 92.5t-99.5 244.5zM196 1260l271 359h338l271 -359 h-297l-134 202h-19l-133 -202h-297zM422 345q0 -53 40.5 -84t107.5 -31q84 0 141.5 49t57.5 121v73l-187 -12q-78 -6 -119 -36t-41 -80z" />
<glyph unicode="&#xe3;" horiz-adv-x="1248" d="M81 320q0 152 114.5 238.5t330.5 99.5l243 14v87q0 57 -40.5 88.5t-113.5 31.5q-141 0 -176 -90h-318q12 162 150 256t364 94q230 0 356 -100t126 -280v-759h-344v138h-19q-37 -71 -122 -113t-191 -42q-161 0 -260.5 92.5t-99.5 244.5zM221 1264q0 149 76.5 241t200.5 92 q40 0 76.5 -14.5t61.5 -35t47.5 -40.5t45 -34.5t43.5 -14.5q38 0 60 34t23 97h210q0 -147 -76 -238t-200 -91q-49 0 -93.5 22t-70 48t-55.5 48t-55 22q-38 0 -60 -36t-24 -100h-210zM422 345q0 -53 40.5 -84t107.5 -31q84 0 141.5 49t57.5 121v73l-187 -12q-78 -6 -119 -36 t-41 -80z" />
<glyph unicode="&#xe4;" horiz-adv-x="1248" d="M81 320q0 152 114.5 238.5t330.5 99.5l243 14v87q0 57 -40.5 88.5t-113.5 31.5q-141 0 -176 -90h-318q12 162 150 256t364 94q230 0 356 -100t126 -280v-759h-344v138h-19q-37 -71 -122 -113t-191 -42q-161 0 -260.5 92.5t-99.5 244.5zM212 1424q0 72 48.5 118t124.5 46 t124.5 -46t48.5 -118t-48.5 -118t-124.5 -46t-124.5 46t-48.5 118zM422 345q0 -53 40.5 -84t107.5 -31q84 0 141.5 49t57.5 121v73l-187 -12q-78 -6 -119 -36t-41 -80zM714 1424q0 72 48.5 118t124.5 46t125 -46t49 -118t-49 -118t-125 -46t-124.5 46t-48.5 118z" />
<glyph unicode="&#xe5;" horiz-adv-x="1248" d="M81 320q0 152 114.5 238.5t330.5 99.5l243 14v87q0 57 -40.5 88.5t-113.5 31.5q-141 0 -176 -90h-318q12 162 150 256t364 94q230 0 356 -100t126 -280v-759h-344v138h-19q-37 -71 -122 -113t-191 -42q-161 0 -260.5 92.5t-99.5 244.5zM383 1505q0 106 71.5 174t182.5 68 q110 0 180.5 -68t70.5 -174q0 -107 -71 -176t-180 -69q-110 0 -182 69t-72 176zM422 345q0 -53 40.5 -84t107.5 -31q84 0 141.5 49t57.5 121v73l-187 -12q-78 -6 -119 -36t-41 -80zM539 1504q0 -43 27.5 -70t69.5 -27q43 0 70 27.5t27 69.5q0 41 -28 68.5t-69 27.5 q-42 -1 -69.5 -28t-27.5 -68z" />
<glyph unicode="&#xe6;" horiz-adv-x="1918" d="M81 320q0 152 114.5 238.5t330.5 99.5l243 14v63q0 71 -42.5 107.5t-111.5 36.5q-141 0 -176 -90h-318q11 153 141.5 251.5t325.5 98.5q249 0 362 -148h19q63 69 154.5 108.5t200.5 39.5q235 0 373 -151t138 -406v-104h-735v-29q2 -101 63 -162t160 -61q134 0 185 102 h320q-29 -161 -164.5 -257.5t-333.5 -96.5q-131 0 -235 49t-160 136h-19q-68 -86 -173.5 -135.5t-232.5 -49.5q-196 0 -312.5 96.5t-116.5 249.5zM422 342q0 -54 41 -85.5t110 -31.5q89 0 142.5 49.5t53.5 117.5v81l-187 -12q-78 -6 -119 -36.5t-41 -82.5zM1100 680h395 q-5 94 -58 151t-135 57q-87 0 -143 -57.5t-59 -150.5z" />
<glyph unicode="&#xe7;" horiz-adv-x="1233" d="M83 558q0 284 144 432.5t419 148.5q228 0 361.5 -116t150.5 -322h-325q-11 79 -59 122.5t-128 43.5q-208 0 -208 -309q0 -312 208 -312q163 0 187 158h325q-14 -177 -123 -288.5t-292 -135.5l-33 -78q91 -7 138.5 -53.5t47.5 -128.5q0 -101 -72.5 -156t-206.5 -55 q-92 0 -148 18v144q40 -14 113 -14q108 0 108 53q0 28 -28.5 40.5t-91.5 12.5h-61v128l39 88q-228 26 -346.5 173.5t-118.5 405.5z" />
<glyph unicode="&#xe8;" horiz-adv-x="1262" d="M83 549q0 275 147.5 432.5t406.5 157.5q257 0 400 -148.5t143 -414.5v-98h-749v-18q2 -109 61 -172t160 -63q77 0 128.5 27t69.5 76h323q-29 -163 -172 -258.5t-359 -95.5q-266 0 -412.5 150.5t-146.5 424.5zM214 1647h356l245 -359h-309zM433 681h404q-4 97 -56.5 152 t-141.5 55q-87 0 -143 -56.5t-63 -150.5z" />
<glyph unicode="&#xe9;" horiz-adv-x="1262" d="M83 549q0 275 147.5 432.5t406.5 157.5q257 0 400 -148.5t143 -414.5v-98h-749v-18q2 -109 61 -172t160 -63q77 0 128.5 27t69.5 76h323q-29 -163 -172 -258.5t-359 -95.5q-266 0 -412.5 150.5t-146.5 424.5zM433 681h404q-4 97 -56.5 152t-141.5 55q-87 0 -143 -56.5 t-63 -150.5zM461 1288l245 359h356l-292 -359h-309z" />
<glyph unicode="&#xea;" horiz-adv-x="1262" d="M83 549q0 275 147.5 432.5t406.5 157.5q257 0 400 -148.5t143 -414.5v-98h-749v-18q2 -109 61 -172t160 -63q77 0 128.5 27t69.5 76h323q-29 -163 -172 -258.5t-359 -95.5q-266 0 -412.5 150.5t-146.5 424.5zM197 1260l271 359h338l271 -359h-297l-134 202h-19l-133 -202 h-297zM433 681h404q-4 97 -56.5 152t-141.5 55q-87 0 -143 -56.5t-63 -150.5z" />
<glyph unicode="&#xeb;" horiz-adv-x="1262" d="M83 549q0 275 147.5 432.5t406.5 157.5q257 0 400 -148.5t143 -414.5v-98h-749v-18q2 -109 61 -172t160 -63q77 0 128.5 27t69.5 76h323q-29 -163 -172 -258.5t-359 -95.5q-266 0 -412.5 150.5t-146.5 424.5zM213 1424q0 72 48.5 118t124.5 46t124.5 -46t48.5 -118 t-48.5 -118t-124.5 -46t-124.5 46t-48.5 118zM433 681h404q-4 97 -56.5 152t-141.5 55q-87 0 -143 -56.5t-63 -150.5zM715 1424q0 72 48.5 118t124.5 46t125 -46t49 -118t-49 -118t-125 -46t-124.5 46t-48.5 118z" />
<glyph unicode="&#xec;" horiz-adv-x="631" d="M-108 1647h356l245 -359h-309zM138 0v1113h354v-1113h-354z" />
<glyph unicode="&#xed;" horiz-adv-x="631" d="M138 0v1113h354v-1113h-354zM139 1288l245 359h356l-292 -359h-309z" />
<glyph unicode="&#xee;" horiz-adv-x="631" d="M-125 1260l271 359h338l271 -359h-297l-134 202h-19l-133 -202h-297zM138 0v1113h354v-1113h-354z" />
<glyph unicode="&#xef;" horiz-adv-x="631" d="M-109 1424q0 72 48.5 118t124.5 46t124.5 -46t48.5 -118t-48.5 -118t-124.5 -46t-124.5 46t-48.5 118zM138 0v1113h354v-1113h-354zM393 1424q0 72 48.5 118t124.5 46t125 -46t49 -118t-49 -118t-125 -46t-124.5 46t-48.5 118z" />
<glyph unicode="&#xf0;" horiz-adv-x="1323" d="M90 543q0 225 128.5 367t333.5 142q83 0 152.5 -29t111.5 -80h18q-19 57 -64 126.5t-102 127.5l-287 -97l-67 155l227 76q-86 69 -264 181h446q52 -37 105 -84l273 92l69 -155l-203 -68q267 -294 267 -680q0 -286 -158 -460t-418 -174q-255 0 -411.5 154.5t-156.5 405.5z M453 540q0 -129 57.5 -204t156.5 -75q100 0 158 74.5t58 204.5q0 128 -58 203.5t-158 75.5q-98 0 -156 -75t-58 -204z" />
<glyph unicode="&#xf1;" horiz-adv-x="1332" d="M138 0v1113h344v-181h19q37 96 122 151.5t204 55.5q184 0 280.5 -109t96.5 -311v-719h-354v640q0 210 -175 210q-85 0 -134.5 -58.5t-49.5 -155.5v-636h-353zM267 1264q0 149 76.5 241t200.5 92q40 0 76.5 -14.5t61.5 -35t47.5 -40.5t45 -34.5t43.5 -14.5q38 0 60 34 t23 97h210q0 -147 -76 -238t-200 -91q-49 0 -93.5 22t-70 48t-55.5 48t-55 22q-38 0 -60 -36t-24 -100h-210z" />
<glyph unicode="&#xf2;" horiz-adv-x="1300" d="M83 557q0 270 152 426t415 156q264 0 415.5 -155.5t151.5 -426.5q0 -275 -149.5 -429t-417.5 -154q-267 0 -417 154t-150 429zM227 1647h356l245 -359h-309zM446 557q0 -149 53.5 -231t150.5 -82t150.5 82t53.5 231q0 146 -54 229t-150 83t-150 -83t-54 -229z" />
<glyph unicode="&#xf3;" horiz-adv-x="1300" d="M83 557q0 270 152 426t415 156q264 0 415.5 -155.5t151.5 -426.5q0 -275 -149.5 -429t-417.5 -154q-267 0 -417 154t-150 429zM446 557q0 -149 53.5 -231t150.5 -82t150.5 82t53.5 231q0 146 -54 229t-150 83t-150 -83t-54 -229zM474 1288l245 359h356l-292 -359h-309z " />
<glyph unicode="&#xf4;" horiz-adv-x="1300" d="M83 557q0 270 152 426t415 156q264 0 415.5 -155.5t151.5 -426.5q0 -275 -149.5 -429t-417.5 -154q-267 0 -417 154t-150 429zM210 1260l271 359h338l271 -359h-297l-134 202h-19l-133 -202h-297zM446 557q0 -149 53.5 -231t150.5 -82t150.5 82t53.5 231q0 146 -54 229 t-150 83t-150 -83t-54 -229z" />
<glyph unicode="&#xf5;" horiz-adv-x="1300" d="M83 557q0 270 152 426t415 156q264 0 415.5 -155.5t151.5 -426.5q0 -275 -149.5 -429t-417.5 -154q-267 0 -417 154t-150 429zM235 1264q0 149 76.5 241t200.5 92q40 0 76.5 -14.5t61.5 -35t47.5 -40.5t45 -34.5t43.5 -14.5q38 0 60 34t23 97h210q0 -147 -76 -238 t-200 -91q-49 0 -93.5 22t-70 48t-55.5 48t-55 22q-38 0 -60 -36t-24 -100h-210zM446 557q0 -149 53.5 -231t150.5 -82t150.5 82t53.5 231q0 146 -54 229t-150 83t-150 -83t-54 -229z" />
<glyph unicode="&#xf6;" horiz-adv-x="1300" d="M83 557q0 270 152 426t415 156q264 0 415.5 -155.5t151.5 -426.5q0 -275 -149.5 -429t-417.5 -154q-267 0 -417 154t-150 429zM226 1424q0 72 48.5 118t124.5 46t124.5 -46t48.5 -118t-48.5 -118t-124.5 -46t-124.5 46t-48.5 118zM446 557q0 -149 53.5 -231t150.5 -82 t150.5 82t53.5 231q0 146 -54 229t-150 83t-150 -83t-54 -229zM728 1424q0 72 48.5 118t124.5 46t125 -46t49 -118t-49 -118t-125 -46t-124.5 46t-48.5 118z" />
<glyph unicode="&#xf7;" d="M174 459v255h1113v-255h-1113zM541 180q0 79 52 127.5t138 48.5q85 0 137 -48.5t52 -127.5t-52 -127.5t-137 -48.5t-137.5 48.5t-52.5 127.5zM541 992q0 79 52 127.5t138 48.5q85 0 137 -48.5t52 -127.5t-52 -127.5t-137 -48.5t-137.5 48.5t-52.5 127.5z" />
<glyph unicode="&#xf8;" horiz-adv-x="1300" d="M83 557q0 270 152 426t415 156q149 0 267 -52l64 107l108 -57l-68 -113q196 -156 196 -467q0 -275 -149.5 -429t-417.5 -154q-131 0 -239 40l-61 -101l-103 61l57 95q-107 73 -164 197.5t-57 290.5zM446 557q0 -117 34 -196l282 469q-48 39 -112 39q-96 0 -150 -83 t-54 -229zM563 265q37 -21 87 -21q97 0 150.5 82t53.5 231q0 90 -21 156z" />
<glyph unicode="&#xf9;" horiz-adv-x="1340" d="M128 386v727h353v-640q0 -101 47.5 -154.5t133.5 -53.5q89 0 137.5 56.5t48.5 155.5v636h354v-1113h-344v180h-19q-82 -206 -316 -206q-179 0 -287 110.5t-108 301.5zM242 1647h356l245 -359h-309z" />
<glyph unicode="&#xfa;" horiz-adv-x="1340" d="M128 386v727h353v-640q0 -101 47.5 -154.5t133.5 -53.5q89 0 137.5 56.5t48.5 155.5v636h354v-1113h-344v180h-19q-82 -206 -316 -206q-179 0 -287 110.5t-108 301.5zM489 1288l245 359h356l-292 -359h-309z" />
<glyph unicode="&#xfb;" horiz-adv-x="1340" d="M128 386v727h353v-640q0 -101 47.5 -154.5t133.5 -53.5q89 0 137.5 56.5t48.5 155.5v636h354v-1113h-344v180h-19q-82 -206 -316 -206q-179 0 -287 110.5t-108 301.5zM225 1260l271 359h338l271 -359h-297l-134 202h-19l-133 -202h-297z" />
<glyph unicode="&#xfc;" horiz-adv-x="1340" d="M128 386v727h353v-640q0 -101 47.5 -154.5t133.5 -53.5q89 0 137.5 56.5t48.5 155.5v636h354v-1113h-344v180h-19q-82 -206 -316 -206q-179 0 -287 110.5t-108 301.5zM241 1424q0 72 48.5 118t124.5 46t124.5 -46t48.5 -118t-48.5 -118t-124.5 -46t-124.5 46t-48.5 118z M743 1424q0 72 48.5 118t124.5 46t125 -46t49 -118t-49 -118t-125 -46t-124.5 46t-48.5 118z" />
<glyph unicode="&#xfd;" horiz-adv-x="1282" d="M50 1113h391l199 -816h19l199 816h374l-358 -1111q-71 -222 -203.5 -314.5t-372.5 -92.5q-124 0 -129 1v269q10 -2 62 -2q176 0 194 97l5 31zM474 1288l245 359h356l-292 -359h-309z" />
<glyph unicode="&#xfe;" horiz-adv-x="1382" d="M140 -339v1847h352v-576h19q41 94 127 146t201 52q211 0 328 -150t117 -423q0 -272 -116 -423t-325 -151q-119 0 -205.5 49.5t-124.5 138.5h-19v-510h-354zM491 556q1 -139 58 -217t157 -78q101 0 158 78.5t57 217.5q0 137 -57 216t-157 79t-157.5 -79t-58.5 -217z" />
<glyph unicode="&#xff;" horiz-adv-x="1282" d="M50 1113h391l199 -816h19l199 816h374l-358 -1111q-71 -222 -203.5 -314.5t-372.5 -92.5q-124 0 -129 1v269q10 -2 62 -2q176 0 194 97l5 31zM226 1424q0 72 48.5 118t124.5 46t124.5 -46t48.5 -118t-48.5 -118t-124.5 -46t-124.5 46t-48.5 118zM728 1424q0 72 48.5 118 t124.5 46t125 -46t49 -118t-49 -118t-125 -46t-124.5 46t-48.5 118z" />
<glyph unicode="&#x152;" horiz-adv-x="2242" d="M117 722q0 362 170 561t479 199q152 0 279 -73t171 -186h20v220h927v-295h-626v-288h589v-270h-589v-295h626v-295h-927v226h-20q-49 -119 -173 -192t-277 -73q-307 0 -478 200.5t-171 560.5zM491 722q0 -209 92.5 -333t248.5 -124q152 0 243 124.5t91 332.5t-91 332 t-243 124q-155 0 -248 -124t-93 -332z" />
<glyph unicode="&#x153;" horiz-adv-x="2033" d="M90 554q0 271 147 428t401 157t385 -174h19q60 82 161.5 128t229.5 46q235 0 377 -153.5t142 -409.5v-97h-748v-19q2 -109 61 -171.5t160 -62.5q159 0 198 102h320q-29 -161 -168.5 -257.5t-339.5 -96.5q-126 0 -228.5 45t-166.5 125h-19q-62 -81 -160.5 -125.5 t-223.5 -44.5q-253 0 -400 155.5t-147 424.5zM453 555q0 -147 54 -229t151 -82t150.5 82t53.5 229q0 148 -54 231t-150 83t-150.5 -83t-54.5 -231zM1206 682h404q-5 97 -57.5 151.5t-141.5 54.5q-86 0 -142 -56t-63 -150z" />
<glyph unicode="&#x178;" horiz-adv-x="1508" d="M73 1443h391l281 -589h19l279 589h391l-497 -947v-496h-366v496zM331 1745q0 72 48.5 118t124.5 46t124.5 -46t48.5 -118t-48.5 -118t-124.5 -46t-124.5 46t-48.5 118zM833 1745q0 72 48.5 118t124.5 46t125 -46t49 -118t-49 -118t-125 -46t-124.5 46t-48.5 118z" />
<glyph unicode="&#x2c6;" horiz-adv-x="1102" d="M111 1260l271 359h338l271 -359h-297l-134 202h-19l-133 -202h-297z" />
<glyph unicode="&#x2dc;" horiz-adv-x="1101" d="M128 1272q0 149 76.5 241t200.5 92q40 0 76.5 -14.5t61.5 -35t47.5 -40.5t45 -34.5t43.5 -14.5q38 0 60 34t23 97h210q0 -147 -76 -238t-200 -91q-49 0 -93.5 22t-70 48t-55.5 48t-55 22q-38 0 -60 -36t-24 -100h-210z" />
<glyph unicode="&#x2000;" horiz-adv-x="973" />
<glyph unicode="&#x2001;" horiz-adv-x="1946" />
<glyph unicode="&#x2002;" horiz-adv-x="973" />
<glyph unicode="&#x2003;" horiz-adv-x="1946" />
<glyph unicode="&#x2004;" horiz-adv-x="648" />
<glyph unicode="&#x2005;" horiz-adv-x="486" />
<glyph unicode="&#x2006;" horiz-adv-x="324" />
<glyph unicode="&#x2007;" horiz-adv-x="324" />
<glyph unicode="&#x2008;" horiz-adv-x="243" />
<glyph unicode="&#x2009;" horiz-adv-x="389" />
<glyph unicode="&#x200a;" horiz-adv-x="108" />
<glyph unicode="&#x2010;" horiz-adv-x="1006" d="M174 425v316h658v-316h-658z" />
<glyph unicode="&#x2011;" horiz-adv-x="1006" d="M174 425v316h658v-316h-658z" />
<glyph unicode="&#x2012;" horiz-adv-x="1006" d="M174 425v316h658v-316h-658z" />
<glyph unicode="&#x2013;" horiz-adv-x="1024" d="M0 425v316h1024v-316h-1024z" />
<glyph unicode="&#x2014;" horiz-adv-x="2048" d="M0 425v316h2048v-316h-2048z" />
<glyph unicode="&#x2018;" horiz-adv-x="675" d="M109 804l201 639h244l-109 -639h-336z" />
<glyph unicode="&#x2019;" horiz-adv-x="675" d="M138 804l96 639h337l-190 -639h-243z" />
<glyph unicode="&#x201a;" horiz-adv-x="675" d="M133 -400l97 646h335l-188 -646h-244z" />
<glyph unicode="&#x201c;" horiz-adv-x="1191" d="M106 795l193 648h260l-117 -648h-336zM618 795l180 648h260l-105 -648h-335z" />
<glyph unicode="&#x201d;" horiz-adv-x="1191" d="M134 795l105 648h335l-181 -648h-259zM633 795l117 648h336l-194 -648h-259z" />
<glyph unicode="&#x201e;" horiz-adv-x="1191" d="M134 -400l97 646h335l-188 -646h-244zM633 -400l109 646h336l-201 -646h-244z" />
<glyph unicode="&#x2022;" horiz-adv-x="1032" d="M132 577q0 158 113 271.5t271 113.5t271 -113.5t113 -271.5t-113 -271t-271 -113t-271 113t-113 271z" />
<glyph unicode="&#x2026;" horiz-adv-x="1952" d="M182 157q0 86 54 138.5t147 52.5q94 0 148 -52.5t54 -138.5q0 -85 -54 -137.5t-148 -52.5q-93 0 -147 52.5t-54 137.5zM775 157q0 86 54 138.5t147 52.5q94 0 148 -52.5t54 -138.5q0 -85 -54 -137.5t-148 -52.5q-93 0 -147 52.5t-54 137.5zM1365 157q0 86 54 138.5 t147 52.5q94 0 148 -52.5t54 -138.5q0 -85 -54 -137.5t-148 -52.5q-93 0 -147 52.5t-54 137.5z" />
<glyph unicode="&#x202f;" horiz-adv-x="389" />
<glyph unicode="&#x2039;" horiz-adv-x="948" d="M147 562v8l348 409h306l-344 -408v-8l344 -410h-313z" />
<glyph unicode="&#x203a;" horiz-adv-x="948" d="M147 153l344 410v8l-344 408h306l348 -409v-8l-341 -409h-313z" />
<glyph unicode="&#x205f;" horiz-adv-x="486" />
<glyph unicode="&#x20ac;" d="M126 484v170h142q-2 44 -2 68q0 20 2 56h-142v169h167q64 249 269.5 387t519.5 138q117 0 205 -25v-293q-90 18 -196 18q-145 0 -251.5 -58t-160.5 -167h530v-169h-576q-2 -36 -2 -56q0 -39 4 -68h574v-170h-524q54 -103 157 -158t242 -55q149 0 209 15v-299 q-87 -16 -210 -16q-310 0 -514.5 134.5t-272.5 378.5h-170z" />
<glyph unicode="&#x2122;" horiz-adv-x="2112" d="M50 1205v238h803v-238h-257v-662h-289v662h-257zM999 543v900h342l146 -424h12l145 424h343v-900h-266v491h-14l-133 -381h-162l-133 381h-13v-491h-267z" />
<glyph unicode="&#x25fc;" horiz-adv-x="1115" d="M0 0v1115h1115v-1115h-1115z" />
<glyph unicode="&#xfb01;" horiz-adv-x="1516" d="M51 835v263h178v108q0 170 96.5 252.5t315.5 82.5q97 0 168 -11v-233q-34 6 -90 6q-79 0 -112.5 -30t-33.5 -95v-80h227v-263h-218v-835h-353v835h-178zM1001 1399q0 72 53.5 115t145.5 43q93 0 146.5 -43t53.5 -115q0 -71 -53.5 -114t-146.5 -43q-92 0 -145.5 43 t-53.5 114zM1023 0v1113h354v-1113h-354z" />
<glyph unicode="&#xfb02;" horiz-adv-x="1534" d="M51 835v263h178v108q0 170 96.5 252.5t315.5 82.5q97 0 168 -11v-233q-34 6 -90 6q-79 0 -112.5 -30t-33.5 -95v-80h227v-263h-218v-835h-353v835h-178zM1033 0v1530h353v-1530h-353z" />
</font>
</defs>
</svg>
